<?xml version="1.0" standalone="no"?>
<!DOCTYPE svg PUBLIC "-//W3C//DTD SVG 1.1//EN" "http://www.w3.org/Graphics/SVG/1.1/DTD/svg11.dtd" >
<svg xmlns="http://www.w3.org/2000/svg" xmlns:xlink="http://www.w3.org/1999/xlink" version="1.1">
<metadata></metadata>
<defs>
<font id="prelo_bookbook" horiz-adv-x="1085" >
<font-face units-per-em="2048" ascent="1536" descent="-512" />
<missing-glyph horiz-adv-x="368" />
<glyph horiz-adv-x="0" />
<glyph horiz-adv-x="682" />
<glyph unicode=" "  horiz-adv-x="368" />
<glyph unicode="&#x09;" horiz-adv-x="368" />
<glyph unicode="&#xa0;" horiz-adv-x="368" />
<glyph unicode="!" horiz-adv-x="393" d="M125 0v250h143v-250h-143zM125 1393h143l-8 -955h-127z" />
<glyph unicode="&#x22;" horiz-adv-x="802" d="M125 1393h143l-14 -258h-113zM535 1393h143l-14 -258h-113z" />
<glyph unicode="#" horiz-adv-x="1243" d="M125 248l10 98h205l35 332h-205l10 98h205l27 248h104l-27 -248h318l27 248h106l-29 -248h205l-8 -98h-205l-37 -332h205l-8 -98h-205l-27 -248h-106l27 248h-318l-26 -248h-105l27 248h-205zM444 346h318l35 332h-318z" />
<glyph unicode="$" horiz-adv-x="1228" d="M125 49l27 127q235 -61 462 -61q88 0 154 22t103 59.5t55 80.5t18 92q0 52 -27 95.5t-56.5 68.5t-90.5 50.5t-86 32.5t-86 23q-10 3 -14 4q-70 18 -130 42t-118.5 60t-99.5 79.5t-66 103t-25 127.5q0 90 33.5 158.5t94 110.5t139 64t174.5 25v184h65v-184 q124 -4 211.5 -19t212.5 -51l-35 -126q-241 61 -426 61q-88 0 -150.5 -19t-96 -52t-48 -71.5t-14.5 -84.5q0 -38 15 -72t37.5 -58.5t58 -47.5t66 -37.5t73.5 -28.5t68 -21t61 -16q420 -94 420 -391q0 -184 -125 -287.5t-328 -109.5v-187h-65v185q-255 6 -461 69z" />
<glyph unicode="%" horiz-adv-x="1556" d="M100 1122q0 131 70.5 205t200.5 74t201 -74t71 -205q0 -130 -70.5 -204t-201.5 -74q-130 0 -200.5 73.5t-70.5 204.5zM193 1122q0 -98 45 -149t133 -51t133 51t45 149t-45 149.5t-133 51.5t-133 -51.5t-45 -149.5zM350 0l758 1393h98l-757 -1393h-99zM913 270 q0 130 71 204.5t202 74.5q130 0 200 -74t70 -205t-70 -204.5t-200 -73.5q-131 0 -202 74t-71 204zM1008 270q0 -98 45 -149t133 -51q87 0 132.5 51.5t45.5 148.5t-45.5 149t-132.5 52q-88 0 -133 -51.5t-45 -149.5z" />
<glyph unicode="&#x26;" horiz-adv-x="1443" d="M119 352q0 121 76.5 216.5t271.5 187.5q-1 1 -27.5 31t-31.5 36t-28 35t-30 41.5t-23 40t-21.5 47t-11 46t-5.5 52.5q0 82 32.5 146.5t86.5 103t120 58.5t138 20q161 0 253.5 -80.5t92.5 -226.5q0 -48 -15.5 -91t-52.5 -90t-105.5 -95t-168.5 -95l399 -395 q120 149 154 377h137q-16 -125 -65.5 -249.5t-133.5 -223.5l178 -183l-96 -102l-182 191q-192 -170 -477 -170q-229 0 -347 101t-118 271zM270 373q0 -35 8.5 -69t31.5 -71t59 -65t97 -46t138 -18q219 0 369 140l-430 436q-64 -31 -106.5 -57.5t-84 -63.5t-62 -83.5 t-20.5 -102.5zM428 1094q0 -74 39 -134.5t119 -144.5q135 63 211.5 133.5t76.5 161.5q0 50 -16.5 88.5t-40 59.5t-54.5 34t-55 17t-46 4q-56 0 -99 -16.5t-68 -40.5t-40.5 -55t-21 -57t-5.5 -50z" />
<glyph unicode="'" horiz-adv-x="393" d="M125 1393h143l-14 -258h-113z" />
<glyph unicode="(" horiz-adv-x="675" d="M145 696q0 253 92 509.5t257 473.5h98q-156 -253 -229.5 -493.5t-73.5 -489.5q0 -246 73 -484t230 -499h-98q-165 216 -257 474t-92 509z" />
<glyph unicode=")" horiz-adv-x="675" d="M84 -287q157 261 230 499t73 484q0 249 -73.5 489.5t-229.5 493.5h98q165 -217 256.5 -473.5t91.5 -509.5q0 -251 -91.5 -509t-256.5 -474h-98z" />
<glyph unicode="*" horiz-adv-x="856" d="M86 1118l27 86l282 -78l-10 267h86l-8 -267l280 78l27 -86l-289 -45l189 -231l-70 -54l-174 252l-170 -252l-70 54l189 231z" />
<glyph unicode="+" horiz-adv-x="1024" d="M125 483v119h328v328h118v-328h328v-119h-328v-327h-118v327h-328z" />
<glyph unicode="," horiz-adv-x="393" d="M125 0v250h143v-250l-73 -266h-52l35 266h-53z" />
<glyph unicode="-" horiz-adv-x="1024" d="M125 483v119h774v-119h-774z" />
<glyph unicode="." horiz-adv-x="393" d="M125 0v250h143v-250h-143z" />
<glyph unicode="/" horiz-adv-x="1105" d="M111 0l757 1393h127l-757 -1393h-127z" />
<glyph unicode="0" horiz-adv-x="1208" d="M125 707q0 123 13 223t46 192t86 154.5t137.5 99.5t196.5 37t196.5 -37t137.5 -99.5t86 -154.5t46 -192t13 -223q0 -125 -12.5 -227.5t-46 -197.5t-86.5 -160t-137.5 -103.5t-196.5 -38.5t-196.5 38.5t-137.5 103.5t-86.5 160t-46 197.5t-12.5 227.5zM276 707 q0 -607 328 -607t328 607q0 99 -8 179.5t-30.5 158.5t-58 130.5t-94.5 84.5t-137 32t-137 -32t-94.5 -84.5t-58 -130.5t-30.5 -158.5t-8 -179.5z" />
<glyph unicode="1" horiz-adv-x="749" d="M59 1147q299 142 447 256h102v-1403h-143v1227l-367 -201z" />
<glyph unicode="2" horiz-adv-x="1126" d="M125 0v141q704 473 704 828q0 79 -23.5 139t-57 92t-78.5 51.5t-79.5 25t-68.5 5.5q-168 0 -354 -86l-43 115q117 52 213.5 77t214.5 25q107 0 190.5 -33t134.5 -90.5t77 -130.5t26 -158q0 -213 -159 -424t-492 -446v-4h671v-127h-876z" />
<glyph unicode="3" horiz-adv-x="1167" d="M125 76l47 110q171 -86 387 -86q86 0 150 20t98.5 49t55.5 68.5t26.5 70t5.5 63.5q0 121 -90.5 193.5t-272.5 72.5h-170v119h164q83 0 148 24t104.5 64t59.5 89t20 103q0 41 -12 80.5t-42 81.5t-93 68t-152 26q-174 0 -354 -86l-43 111q182 96 420 96q197 0 308 -96 t111 -266q0 -126 -76.5 -213.5t-199.5 -124.5v-4q148 -26 232.5 -119.5t84.5 -227.5q0 -184 -120.5 -283t-354.5 -99q-267 0 -442 96z" />
<glyph unicode="4" horiz-adv-x="1208" d="M104 377v119q424 463 617 897h180v-897h203v-119h-203v-377h-143v377h-654zM254 496h504v708h-4q-91 -182 -215 -353t-285 -355z" />
<glyph unicode="5" horiz-adv-x="1167" d="M125 82l43 111q106 -52 193.5 -72.5t183.5 -20.5q159 0 252.5 90.5t93.5 247.5q0 46 -9 89.5t-31.5 86t-56 73.5t-86.5 50t-120 19q-174 0 -289 -154l-106 10l34 781h734v-129h-609l-33 -531l5 -2q55 68 137 109t176 41q189 0 297 -115.5t108 -321.5 q0 -221 -131.5 -342.5t-357.5 -121.5q-217 0 -428 102z" />
<glyph unicode="6" horiz-adv-x="1167" d="M125 614q0 178 30 316.5t81 228t124.5 148t155 82.5t178.5 24q90 0 156.5 -12t148.5 -37l-20 -113q-147 41 -272 41q-96 0 -173.5 -38.5t-125 -97.5t-80 -136t-45.5 -147t-15 -138l4 -2q65 92 155 145.5t191 53.5q199 0 311.5 -126t112.5 -355q0 -217 -124 -344 t-318 -127q-108 0 -192 35.5t-136.5 94t-86.5 142t-47 171.5t-13 191zM281 616q-3 -70 0.5 -130t15 -120.5t34.5 -107t56.5 -83t85 -56t117.5 -19.5q127 0 214 93t87 258q0 51 -7.5 97.5t-29 95t-54.5 83.5t-89 57.5t-129 22.5q-87 0 -165 -52.5t-136 -138.5z" />
<glyph unicode="7" horiz-adv-x="1024" d="M104 1264v129h816v-105q-89 -146 -162.5 -282t-151 -304t-134.5 -348.5t-85 -353.5h-160q43 279 200.5 636t334.5 624v4h-658z" />
<glyph unicode="8" horiz-adv-x="1208" d="M125 344q0 71 27 130t76.5 103t108 76.5t134.5 59.5v4q-145 56 -225 138.5t-80 209.5q0 162 123.5 255t318.5 93q189 0 311.5 -92t122.5 -250q0 -64 -21 -115t-64.5 -90.5t-94.5 -69t-127 -61.5v-4q82 -34 139.5 -67t108 -77.5t75.5 -102t25 -128.5q0 -178 -129 -277 t-354 -99q-221 0 -348 95.5t-127 268.5zM272 356q0 -53 18 -99t55.5 -85t105 -61.5t157.5 -22.5q89 0 154.5 21t102.5 58.5t54 82t17 96.5q0 30 -7 57t-17.5 48.5t-30.5 43t-37 36.5t-46.5 32.5t-49 27.5t-54.5 25t-54 22t-56 21q-65 -22 -115 -47t-97.5 -61t-73.5 -86 t-26 -109zM309 1067q0 -56 24.5 -101.5t69.5 -78.5t97.5 -56.5t120.5 -42.5q131 45 204.5 108.5t73.5 162.5q0 55 -19.5 99t-50.5 71t-72 44.5t-79.5 24.5t-77.5 7q-47 0 -94 -11.5t-93 -37t-75 -74.5t-29 -115z" />
<glyph unicode="9" horiz-adv-x="1167" d="M125 942q0 217 124 344t318 127q108 0 192 -35.5t136.5 -94t86.5 -142.5t47 -172t13 -191q0 -178 -30 -316.5t-81 -228t-124.5 -147.5t-155 -82t-178.5 -24q-90 0 -156.5 12t-148.5 37l20 112q147 -41 273 -41q96 0 173.5 38.5t124.5 97.5t79.5 136t45.5 147t15 138l-4 2 q-65 -92 -154.5 -145t-191.5 -53q-200 0 -312 126t-112 355zM276 942q0 -51 7.5 -97.5t28.5 -95t54.5 -83.5t90 -57.5t129.5 -22.5q88 0 165.5 52.5t135.5 137.5q3 85 -2 155t-25 139t-53.5 116.5t-92 76.5t-136.5 29q-127 0 -214.5 -93t-87.5 -257z" />
<glyph unicode=":" horiz-adv-x="393" d="M125 0v250h143v-250h-143zM125 690v252h143v-252h-143z" />
<glyph unicode=";" horiz-adv-x="393" d="M125 0v250h143v-250l-73 -266h-52l35 266h-53zM125 690v252h143v-252h-143z" />
<glyph unicode="&#x3c;" horiz-adv-x="778" d="M125 467v90l528 334v-131l-377 -248l377 -248v-131z" />
<glyph unicode="=" horiz-adv-x="1024" d="M125 279v118h774v-118h-774zM125 688v119h774v-119h-774z" />
<glyph unicode="&#x3e;" horiz-adv-x="778" d="M125 125v131l377 256l-377 256v131l528 -342v-90z" />
<glyph unicode="?" horiz-adv-x="983" d="M104 1335q196 78 385 78q90 0 160 -21.5t112.5 -56t70 -81.5t37.5 -93.5t10 -97.5q0 -66 -17 -121.5t-44.5 -93t-63 -71t-72.5 -57t-72.5 -49.5t-63 -50t-44.5 -57t-17 -72v-62h-127v62q0 58 20.5 106t53.5 81t72.5 62.5t79.5 59t73 62.5t53.5 80.5t20.5 105.5 q0 229 -276 229q-124 0 -308 -68zM350 0v250h144v-250h-144z" />
<glyph unicode="@" horiz-adv-x="1699" d="M61 518q0 235 107 422t296 291t425 104q206 0 376.5 -83t271.5 -236.5t101 -347.5q0 -110 -32.5 -206t-94 -169.5t-159 -115.5t-219.5 -42h-101v80h-4q-103 -94 -256 -94q-119 0 -189.5 61t-70.5 166q0 244 336 244h184v84q0 90 -42.5 134t-147.5 44q-115 0 -260 -45 l-23 80q163 55 309 55q140 0 209.5 -58.5t69.5 -203.5v-459q91 0 162.5 30t114.5 76.5t71 107.5t38.5 116.5t10.5 110.5q0 174 -90 309t-238 205.5t-327 70.5q-211 0 -378 -91t-261 -258t-94 -382q0 -147 50.5 -273.5t138.5 -215.5t212.5 -140t267.5 -51l-8 -84 q-163 0 -304 58.5t-240 160t-155.5 242.5t-56.5 303zM629 358q0 -69 47 -108t135 -39q131 0 221 76v233h-180q-123 0 -173 -41t-50 -121z" />
<glyph unicode="A" horiz-adv-x="1331" d="M84 0l494 1403h188l481 -1403h-168l-127 373h-577l-131 -373h-160zM408 500h514l-252 714h-4z" />
<glyph unicode="B" horiz-adv-x="1249" d="M145 0v1393h551q197 0 302.5 -95.5t105.5 -257.5q0 -122 -61.5 -207.5t-174.5 -117.5v-4q132 -27 204.5 -117.5t72.5 -222.5q0 -173 -105 -272t-303 -99h-592zM297 135h418q130 0 200 63.5t70 190.5q0 122 -75.5 188t-221.5 66h-391v-508zM297 778h383q264 0 264 240 q0 112 -68.5 175.5t-195.5 63.5h-383v-479z" />
<glyph unicode="C" horiz-adv-x="1269" d="M125 707q0 87 7.5 161.5t26 147.5t48 131.5t75 109t105 84.5t140.5 53t180 19q234 0 471 -70l-35 -126q-149 36 -240 48.5t-184 12.5q-104 0 -181.5 -30.5t-125 -81t-77 -126.5t-40 -155t-10.5 -178q0 -105 10.5 -188t40 -161t77 -129.5t125 -82.5t181.5 -31 q93 0 184 12.5t240 48.5l35 -127q-234 -69 -471 -69q-115 0 -206 25.5t-153.5 74.5t-107 113t-69 148.5t-35.5 172.5t-11 193z" />
<glyph unicode="D" horiz-adv-x="1331" d="M145 0v1393h486q130 0 230 -34.5t164.5 -95t105.5 -148.5t58 -187.5t17 -220.5q0 -707 -575 -707h-486zM297 135h334q98 0 172 30.5t120 81.5t74.5 126.5t39 155.5t10.5 178t-11 176t-39 150t-74 119.5t-120 76t-172 28.5h-334v-1122z" />
<glyph unicode="E" horiz-adv-x="1146" d="M145 0v1393h867v-136h-715v-466h623v-136h-623v-520h725v-135h-877z" />
<glyph unicode="F" horiz-adv-x="1095" d="M145 0v1393h846v-136h-694v-507h602v-136h-602v-614h-152z" />
<glyph unicode="G" horiz-adv-x="1310" d="M125 707q0 87 7.5 161.5t26 147.5t48 131.5t75 109t105 84.5t140.5 53t180 19q218 0 458 -70l-35 -126q-151 37 -236 49t-175 12q-104 0 -181.5 -30.5t-125 -81t-77 -126.5t-40 -155t-10.5 -178q0 -105 10.5 -188t40 -161t77 -129.5t125 -82.5t181.5 -31q157 0 295 84 v366h-293v135h444v-604q-83 -38 -133 -57.5t-140 -39t-185 -19.5q-115 0 -206 25.5t-153.5 74.5t-107 113t-69 148.5t-35.5 172.5t-11 193z" />
<glyph unicode="H" horiz-adv-x="1310" d="M145 0v1393h152v-602h717v602h151v-1393h-151v655h-717v-655h-152z" />
<glyph unicode="I" horiz-adv-x="442" d="M145 0v1393h152v-1393h-152z" />
<glyph unicode="J" horiz-adv-x="667" d="M39 -6l14 127q82 -10 123 -10q104 0 149.5 55.5t45.5 179.5v1047h151v-1055q0 -195 -76.5 -276.5t-230.5 -81.5q-83 0 -176 14z" />
<glyph unicode="K" horiz-adv-x="1275" d="M145 0v1393h152v-766l694 766h180l-507 -574l522 -819h-191l-442 698l-256 -278v-420h-152z" />
<glyph unicode="L" horiz-adv-x="1105" d="M145 0v1393h152v-1258h704v-135h-856z" />
<glyph unicode="M" horiz-adv-x="1638" d="M145 0v1393h197l479 -1143h4l469 1143h199v-1393h-152v1108h-4l-465 -1108h-112l-463 1108h-4v-1108h-148z" />
<glyph unicode="N" horiz-adv-x="1331" d="M145 0v1393h152l737 -1112h4v1112h148v-1393h-152l-737 1098h-4v-1098h-148z" />
<glyph unicode="O" horiz-adv-x="1413" d="M125 707q0 87 7.5 161.5t26 147.5t48 131.5t75 109t105 84.5t140.5 53t180 19q137 0 240 -37t167 -99t104 -155t55 -192.5t15 -222.5q0 -104 -10.5 -191t-35.5 -171.5t-69 -149t-106.5 -114t-154 -75.5t-205.5 -26q-137 0 -240.5 38.5t-167.5 103.5t-104 160.5t-55 197.5 t-15 227zM285 707q0 -102 9 -181.5t36 -161.5t72 -136t122.5 -88t182.5 -34q76 0 137.5 17.5t104.5 47.5t75.5 75.5t52 95t31.5 112.5t16 122.5t4 130.5t-4 129t-16 119t-31.5 108t-52 90t-76 71t-104.5 44t-137 16t-137.5 -16t-105 -44t-75.5 -71t-52 -90t-31.5 -108 t-16 -119t-4.5 -129z" />
<glyph unicode="P" horiz-adv-x="1228" d="M145 0v1393h564q196 0 305.5 -113t109.5 -293q0 -187 -108.5 -295t-306.5 -108h-412v-584h-152zM297 719h397q130 0 202.5 68t72.5 200q0 126 -73.5 198t-201.5 72h-397v-538z" />
<glyph unicode="Q" horiz-adv-x="1413" d="M125 707q0 87 7.5 161.5t26 147.5t48 131.5t75 109t105 84.5t140.5 53t180 19q137 0 240 -37t167 -99t104 -155t55 -192.5t15 -222.5q0 -657 -483 -678q23 -39 91 -64t153 -33q28 -2 61 -2q66 0 150 7v-138q-70 -8 -134 -8q-44 0 -84 4q-127 11 -224 57.5t-148 127.5 q-127 5 -223 46t-156.5 106t-98.5 159t-52.5 194t-14.5 222zM285 707q0 -102 9 -181.5t36 -161.5t72 -136t122.5 -88t182.5 -34q76 0 137.5 17.5t104.5 47.5t75.5 75.5t52 95t31.5 112.5t16 122.5t4 130.5t-4 129t-16 119t-31.5 108t-52 90t-76 71t-104.5 44t-137 16 t-137.5 -16t-105 -44t-75.5 -71t-52 -90t-31.5 -108t-16 -119t-4.5 -129z" />
<glyph unicode="R" horiz-adv-x="1259" d="M145 0v1393h564q195 0 305 -116.5t110 -297.5q0 -155 -85 -261.5t-240 -129.5l370 -588h-178l-350 565h-344v-565h-152zM297 700h383q132 0 210.5 73t78.5 206q0 127 -74 202.5t-201 75.5h-397v-557z" />
<glyph unicode="S" horiz-adv-x="1228" d="M125 49l27 127q250 -61 462 -61q85 0 150.5 22t103.5 58.5t57 80t19 91.5q0 43 -13 78.5t-45.5 63.5t-55 45.5t-76.5 36.5t-72 24.5t-77 21.5l-21 6q-88 22 -162 55t-138.5 82t-101.5 119.5t-37 155.5q0 94 36 164.5t101 112t148 61.5t184 20q224 0 461 -70l-35 -126 q-148 36 -240.5 48.5t-185.5 12.5q-164 0 -236.5 -63.5t-72.5 -163.5q0 -51 26.5 -95t63.5 -71.5t93.5 -52t98.5 -37t97 -25.5q420 -94 420 -391q0 -193 -135.5 -296t-354.5 -103q-255 0 -489 69z" />
<glyph unicode="T" horiz-adv-x="1146" d="M104 1257v136h938v-136h-393v-1257h-151v1257h-394z" />
<glyph unicode="U" horiz-adv-x="1310" d="M145 492v901h152v-901q0 -40 2 -71t10.5 -73t23 -74t42 -65t65 -54.5t94.5 -35t128 -13.5q67 0 121.5 13.5t90.5 35t62.5 54.5t41 65t23 73.5t11 73.5t2.5 71v901h151v-901q0 -263 -128 -387.5t-382 -124.5t-382 124.5t-128 387.5z" />
<glyph unicode="V" horiz-adv-x="1331" d="M84 1393h168l424 -1215h2l409 1215h160l-481 -1403h-188z" />
<glyph unicode="W" horiz-adv-x="1925" d="M84 1393h168l311 -1205h2l312 1205h180l313 -1205h2l309 1205h160l-375 -1403h-196l-305 1161h-4l-306 -1161h-196z" />
<glyph unicode="X" horiz-adv-x="1331" d="M90 0l471 731l-428 662h178l351 -535h4l346 535h178l-428 -662l479 -731h-182l-404 604h-4l-391 -604h-170z" />
<glyph unicode="Y" horiz-adv-x="1269" d="M84 1393h174l379 -744h4l379 744h166l-475 -901v-492h-152v492z" />
<glyph unicode="Z" horiz-adv-x="1146" d="M92 0v113l737 1140v4h-696v136h901v-113l-731 -1141v-4h752v-135h-963z" />
<glyph unicode="[" horiz-adv-x="614" d="M125 -287v1966h405v-90h-254v-1786h254v-90h-405z" />
<glyph unicode="\" horiz-adv-x="1105" d="M111 1393h127l757 -1393h-127z" />
<glyph unicode="]" horiz-adv-x="614" d="M84 -197h254v1786h-254v90h405v-1966h-405v90z" />
<glyph unicode="^" horiz-adv-x="778" d="M125 1044l215 390h98l215 -390h-82l-184 308l-180 -308h-82z" />
<glyph unicode="_" horiz-adv-x="1024" d="M125 -123h774v-90h-774v90z" />
<glyph unicode="`" horiz-adv-x="503" d="M127 1393h121l129 -246h-82z" />
<glyph unicode="a" horiz-adv-x="1034" d="M94 274q0 159 113.5 234.5t316.5 75.5h242v116q0 116 -59 170t-195 54q-144 0 -328 -37l-22 117q200 40 381 40q93 0 158 -15.5t113.5 -53.5t71.5 -103.5t23 -162.5v-709h-143v102h-4q-79 -65 -156 -93.5t-178 -28.5q-154 0 -244 79.5t-90 214.5zM238 287q0 -89 64 -142 t179 -53q163 0 285 98v304h-234q-160 0 -227 -53t-67 -154z" />
<glyph unicode="b" d="M125 -4v1438h143v-512h4q60 55 146.5 88.5t179.5 33.5q104 0 180 -40.5t119.5 -114.5t63.5 -167t20 -210q0 -116 -21 -210t-65.5 -167.5t-121 -114t-181.5 -40.5q-93 0 -179.5 31.5t-148.5 86.5h-4l-24 -102h-111zM268 199q45 -37 119 -68t158 -31q284 0 284 412 t-284 412q-84 0 -158 -31t-119 -68v-626z" />
<glyph unicode="c" horiz-adv-x="983" d="M104 512q0 532 490 532q163 0 342 -45l-27 -116q-160 41 -315 41q-174 0 -256 -111.5t-82 -300.5t82 -300.5t256 -111.5q155 0 315 41l27 -116q-179 -45 -342 -45q-490 0 -490 532z" />
<glyph unicode="d" d="M104 512q0 116 21 210t66 167.5t121.5 114t181.5 40.5q91 0 175.5 -31.5t143.5 -86.5h4v508h144v-1434h-144v102h-4q-60 -56 -147 -89t-181 -33q-84 0 -149.5 27t-108.5 74t-71 115t-40 145.5t-12 170.5zM256 512q0 -412 285 -412q84 0 157.5 30.5t118.5 68.5v626 q-45 38 -118.5 68.5t-157.5 30.5q-64 0 -114 -22t-82 -59.5t-52.5 -91t-28.5 -112t-8 -127.5z" />
<glyph unicode="e" d="M104 512q0 532 490 532q92 0 162.5 -22t114 -57.5t71.5 -85t39 -98.5t12 -105q1 -15 1 -31q0 -63 -15 -151h-719q7 -394 367 -394q184 0 319 41l19 -116q-158 -45 -359 -45q-502 0 -502 532zM260 588h580q9 47 9 89q0 16 -1 32q-7 99 -69.5 161t-192.5 62 q-301 0 -326 -344z" />
<glyph unicode="f" horiz-adv-x="706" d="M45 920v94l162 10v139q0 146 64 208.5t221 62.5q59 0 155 -15l-14 -112q-59 10 -111 10q-98 0 -135 -37t-37 -131v-125h262v-104h-262v-920h-143v920h-162z" />
<glyph unicode="g" horiz-adv-x="1136" d="M72 -164q0 71 45 128t141 108v4q-77 40 -77 120q0 9 1 19q3 51 36 102.5t91 88.5v4q-80 39 -126 113t-46 173q0 164 107.5 256t298.5 92q63 0 137 -20h352v-90h-217q123 -77 123 -238q0 -163 -110 -249.5t-285 -86.5q-91 0 -158 27q-31 -31 -49 -68q-18 -35 -20 -68.5 t18 -57t61 -25.5l377 -23q156 -10 224.5 -67t68.5 -158q0 -350 -584 -350q-409 0 -409 266zM193 -141q0 -90 79 -141.5t242 -51.5q112 0 200.5 25t143.5 78t55 127q0 123 -190 133l-389 20q-72 -48 -106.5 -88.5t-34.5 -101.5zM272 696q0 -112 72 -174.5t199 -62.5 q121 0 192.5 64t71.5 173q0 113 -72 181.5t-192 68.5q-132 0 -201.5 -67t-69.5 -183z" />
<glyph unicode="h" d="M125 0v1434h143v-560h4q177 170 381 170q153 0 230.5 -85.5t77.5 -249.5v-709h-144v678q0 246 -225 246q-147 0 -324 -138v-786h-143z" />
<glyph unicode="i" horiz-adv-x="393" d="M125 0v1024h143v-1024h-143zM125 1149v244h143v-244h-143z" />
<glyph unicode="j" horiz-adv-x="475" d="M-90 -416l14 113q59 -10 111 -10q98 0 135 36.5t37 131.5v1169h143v-1184q0 -146 -63.5 -208t-220.5 -62q-63 0 -156 14zM207 1149v244h143v-244h-143z" />
<glyph unicode="k" horiz-adv-x="1095" d="M125 0v1434h143v-859l545 449h178l-397 -346l418 -678h-170l-348 598l-226 -182v-416h-143z" />
<glyph unicode="l" horiz-adv-x="393" d="M125 0v1434h143v-1434h-143z" />
<glyph unicode="m" horiz-adv-x="1699" d="M125 0v1024h143v-150h4q76 77 158 123.5t184 46.5q227 0 283 -184q173 184 371 184q153 0 230 -85.5t77 -249.5v-709h-143v678q0 246 -226 246q-56 0 -116.5 -26.5t-93 -50.5t-81.5 -65q7 -54 7 -110v-672h-144v684q-4 240 -225 240q-35 0 -71.5 -10.5t-60 -20.5 t-60.5 -36t-47 -34t-46 -37v-786h-143z" />
<glyph unicode="n" d="M125 0v1024h143v-150h4q177 170 381 170q153 0 230.5 -85.5t77.5 -249.5v-709h-144v678q0 246 -225 246q-147 0 -324 -138v-786h-143z" />
<glyph unicode="o" horiz-adv-x="1126" d="M104 512q0 250 110 391t349 141t349 -141t110 -391t-110 -391t-349 -141t-349 141t-110 391zM256 512q0 -412 307 -412t307 412t-307 412t-307 -412z" />
<glyph unicode="p" d="M125 -410v1434h143v-102h4q60 55 146.5 88.5t179.5 33.5q104 0 180 -40.5t119.5 -114.5t63.5 -167t20 -210q0 -116 -21 -210t-65.5 -167.5t-121 -114t-181.5 -40.5q-92 0 -176.5 31.5t-143.5 86.5h-4v-508h-143zM268 199q45 -37 119 -68t158 -31q284 0 284 412t-284 412 q-84 0 -158 -31t-119 -68v-626z" />
<glyph unicode="q" d="M104 512q0 116 21 210t66 167.5t121.5 114t181.5 40.5q91 0 177.5 -31.5t147.5 -86.5h4l27 102h111v-1438h-144v512h-4q-60 -56 -147 -89t-181 -33q-84 0 -149.5 27t-108.5 74t-71 115t-40 145.5t-12 170.5zM256 512q0 -412 285 -412q84 0 157.5 30.5t118.5 68.5v626 q-45 38 -118.5 68.5t-157.5 30.5q-64 0 -114 -22t-82 -59.5t-52.5 -91t-28.5 -112t-8 -127.5z" />
<glyph unicode="r" horiz-adv-x="757" d="M125 0v1024h143v-164h4q78 78 183 131t219 53v-135q-110 0 -220 -42t-186 -95v-772h-143z" />
<glyph unicode="s" horiz-adv-x="983" d="M94 25l27 116q178 -45 385 -45q62 0 108.5 15t70.5 35.5t38.5 47.5t18 45t3.5 35q0 31 -10.5 55t-38 47.5t-79.5 43t-130 35.5q-86 16 -147.5 37t-115.5 56t-81.5 90t-27.5 130q0 136 93.5 206t272.5 70q221 0 400 -45l-27 -116q-178 45 -365 45q-61 0 -106.5 -13.5 t-68.5 -31t-36.5 -41.5t-16.5 -39.5t-3 -30.5q0 -32 9 -55.5t34 -48t76 -44.5t127 -36q94 -20 156.5 -40.5t118.5 -55t83 -86t27 -123.5q0 -147 -94.5 -225t-272.5 -78q-249 0 -428 45z" />
<glyph unicode="t" horiz-adv-x="768" d="M45 920v94l162 10l18 287h125v-287h303v-104h-303v-596q0 -118 41 -173t146 -55q53 0 112 10l15 -112q-93 -14 -172 -14q-152 0 -218.5 72t-66.5 249v619h-162z" />
<glyph unicode="u" d="M125 315v709h143v-678q0 -246 226 -246q146 0 323 138v786h144v-1024h-144v147h-4q-177 -167 -381 -167q-153 0 -230 85t-77 250z" />
<glyph unicode="v" horiz-adv-x="1146" d="M96 1024h162l315 -870h5l317 870h154l-390 -1034h-174z" />
<glyph unicode="w" horiz-adv-x="1617" d="M96 1024h160l252 -870h4l231 870h140l241 -870h4l242 870h150l-312 -1034h-159l-238 813h-4l-232 -813h-159z" />
<glyph unicode="x" horiz-adv-x="1116" d="M84 0l387 535l-356 489h166l282 -385h4l275 385h153l-356 -487l393 -537h-172l-311 426h-4l-305 -426h-156z" />
<glyph unicode="y" horiz-adv-x="1146" d="M96 1024h162l330 -883h4l303 883h154l-396 -1098q-67 -190 -159.5 -273t-233.5 -83q-69 0 -137 14l14 121q44 -10 92 -10q55 0 101 25t79.5 71.5t54 87.5t42.5 98z" />
<glyph unicode="z" horiz-adv-x="962" d="M66 0v104l628 803v4h-598v113h783v-104l-625 -803v-4h643v-113h-831z" />
<glyph unicode="{" horiz-adv-x="696" d="M125 653v86q30 4 53 14t38 21.5t25.5 32.5t15.5 36.5t7.5 46t3 48.5t0.5 55q0 60 -10 192t-10 195q0 76 17.5 130t47 86.5t78 51.5t99.5 25t122 6v-67q-23 0 -34.5 -0.5t-33 -2.5t-33.5 -6t-29.5 -12t-27.5 -19.5t-22 -29.5t-18 -41t-10.5 -54.5t-4.5 -70.5 q0 -62 11.5 -217t11.5 -219q0 -114 -44 -167.5t-130 -74.5v-4q86 -21 130 -74t44 -167q0 -64 -11.5 -220.5t-11.5 -218.5q0 -43 4.5 -77t15 -58t21 -41.5t28.5 -28.5t31.5 -17t36.5 -9t37 -3.5t39 -0.5v-66q-71 0 -122 6t-99.5 24.5t-77.5 51t-47 87t-18 130.5q0 63 10 195 t10 192q0 37 -0.5 55t-3 48.5t-7.5 46t-15.5 36.5t-25.5 32.5t-38 21.5t-53 14z" />
<glyph unicode="|" horiz-adv-x="389" d="M145 -205v1802h99v-1802h-99z" />
<glyph unicode="}" horiz-adv-x="696" d="M84 -221q25 0 39 0.5t37 3.5t36.5 9t31.5 17t28.5 28.5t21 41.5t15 58t4.5 77q0 62 -12.5 218.5t-12.5 220.5q0 113 45 166.5t132 74.5v4q-86 21 -131.5 74.5t-45.5 167.5q0 64 12.5 219t12.5 217q0 39 -4.5 70.5t-10.5 54.5t-18 41t-22 29.5t-27.5 19.5t-29.5 12 t-33.5 6t-33 2.5t-34.5 0.5v67q70 0 121 -6t99.5 -25t78.5 -51.5t48 -86.5t18 -130q0 -63 -10.5 -195t-10.5 -192q0 -37 0.5 -55t3 -48.5t7.5 -46t15.5 -36.5t25.5 -32.5t38 -21.5t53 -14v-86q-30 -4 -53 -14t-38 -21.5t-25.5 -32.5t-15.5 -36.5t-7.5 -46t-3 -48.5t-0.5 -55 q0 -60 10.5 -192t10.5 -195q0 -76 -18 -130.5t-48 -87t-78.5 -51t-99 -24.5t-121.5 -6v66z" />
<glyph unicode="~" horiz-adv-x="935" d="M86 606q64 92 113.5 130t103.5 38q53 0 196 -58.5t175 -58.5q23 0 40 4.5t42.5 26.5t50.5 62l41 -45q-36 -74 -77.5 -110t-96.5 -36q-39 0 -183.5 57.5t-183.5 57.5q-34 0 -70 -20t-102 -87z" />
<glyph unicode="&#xa2;" horiz-adv-x="1056" d="M113 512q0 233 125 379t342 153v185h67v-187q83 -3 150 -20.5t147 -52.5l-18 -113q-93 35 -150 50t-129 16v-822q73 1 130.5 16.5t148.5 51.5l18 -113q-148 -68 -297 -73v-187h-67v185q-217 7 -342 153t-125 379zM264 512q0 -171 83 -285.5t233 -124.5v818 q-150 -9 -233 -123.5t-83 -284.5z" />
<glyph unicode="&#xa3;" horiz-adv-x="1257" d="M113 0v127h102v522h-102v113h102v293q0 76 23 136.5t63.5 101.5t99 68t127 39.5t148.5 12.5q136 0 259.5 -32.5t209.5 -86.5l-62 -118q-187 102 -399 102q-171 0 -248.5 -67t-77.5 -175v-274h486v-113h-486v-522h732v-127h-977z" />
<glyph unicode="&#xa5;" horiz-adv-x="1325" d="M113 1393h172l381 -744h4l379 744h163l-450 -852h328v-90h-351v-451h-151v451h-352v90h327z" />
<glyph unicode="&#xa8;" horiz-adv-x="899" d="M127 1171v222h121v-222h-121zM649 1171v222h121v-222h-121z" />
<glyph unicode="&#xa9;" horiz-adv-x="1566" d="M61 696q0 196 96.5 361t262.5 260.5t362 95.5q197 0 363 -95.5t263 -260.5t97 -361t-97 -361t-263 -260t-363 -95t-362.5 95t-262 260t-96.5 361zM131 696q0 -133 51.5 -253.5t138.5 -207.5t207.5 -138.5t253.5 -51.5q132 0 253 51.5t209 138.5t140 208t52 253 q0 106 -33.5 204.5t-94 178t-141 139.5t-180 92.5t-205.5 32.5q-177 0 -327 -86.5t-237 -235.5t-87 -325zM453 705q0 170 85.5 261t249.5 91q142 0 252 -74l-32 -72q-101 66 -215 66q-244 0 -244 -272q0 -293 244 -293q122 0 213 61l34 -67q-110 -74 -252 -74 q-164 0 -249.5 96.5t-85.5 276.5z" />
<glyph unicode="&#xab;" horiz-adv-x="1329" d="M125 467v90l528 342v-131l-377 -256l377 -256v-131zM676 467v90l526 342v-131l-375 -256l375 -256v-131z" />
<glyph unicode="&#xad;" horiz-adv-x="1024" d="M125 483v119h774v-119h-774z" />
<glyph unicode="&#xae;" horiz-adv-x="1566" d="M61 696q0 196 96.5 361t262.5 260.5t362 95.5q197 0 363 -95.5t263 -260.5t97 -361t-97 -361t-263 -260t-363 -95t-362.5 95t-262 260t-96.5 361zM131 696q0 -133 51.5 -253.5t138.5 -207.5t207.5 -138.5t253.5 -51.5q132 0 253 51.5t209 138.5t140 208t52 253 q0 106 -33.5 204.5t-94 178t-141 139.5t-180 92.5t-205.5 32.5q-177 0 -327 -86.5t-237 -235.5t-87 -325zM532 344v705h279q121 0 187.5 -61t66.5 -167q0 -95 -49 -152.5t-137 -68.5l208 -256h-110l-197 242h-157v-242h-91zM623 668h182q168 0 168 153q0 69 -43.5 107.5 t-118.5 38.5h-188v-299z" />
<glyph unicode="&#xb4;" horiz-adv-x="503" d="M127 1147l129 246h121l-168 -246h-82z" />
<glyph unicode="&#xb8;" horiz-adv-x="595" d="M127 -395l12 51q66 -16 109 -16q68 0 98.5 33t30.5 73q0 39 -31 70t-106 32v152h57v-115q72 -5 122 -40t50 -107t-52.5 -115t-142.5 -43q-64 0 -147 25z" />
<glyph unicode="&#xbb;" horiz-adv-x="1329" d="M125 125v131l377 256l-377 256v131l528 -342v-90zM676 125v131l377 256l-377 256v131l526 -342v-90z" />
<glyph unicode="&#xc2;" horiz-adv-x="1331" d="M84 0l494 1403h188l481 -1403h-168l-127 373h-577l-131 -373h-160zM401 1495l220 246h90l219 -246h-82l-182 178l-183 -178h-82zM408 500h514l-252 714h-4z" />
<glyph unicode="&#xc7;" horiz-adv-x="1269" d="M125 707q0 87 7.5 161.5t26 147.5t48 131.5t75 109t105 84.5t140.5 53t180 19q234 0 471 -70l-35 -126q-149 36 -240 48.5t-184 12.5q-104 0 -181.5 -30.5t-125 -81t-77 -126.5t-40 -155t-10.5 -178q0 -105 10.5 -188t40 -161t77 -129.5t125 -82.5t181.5 -31 q93 0 184 12.5t240 48.5l35 -127q-224 -66 -455 -69v-95q72 -5 122 -40t50 -107t-52.5 -115t-142.5 -43q-64 0 -147 25l10 51q66 -16 113 -16q68 0 97.5 33t29.5 73q0 39 -31.5 70t-107.5 32v134q-127 5 -222.5 45t-155 104t-96.5 158t-51 194t-14 224z" />
<glyph unicode="&#xce;" horiz-adv-x="442" d="M-43 1495l219 246h90l219 -246h-82l-182 178l-182 -178h-82zM143 0v1393h152v-1393h-152z" />
<glyph unicode="&#xd6;" horiz-adv-x="1413" d="M125 707q0 87 7.5 161.5t26 147.5t48 131.5t75 109t105 84.5t140.5 53t180 19q137 0 240 -37t167 -99t104 -155t55 -192.5t15 -222.5q0 -104 -10.5 -191t-35.5 -171.5t-69 -149t-106.5 -114t-154 -75.5t-205.5 -26q-137 0 -240.5 38.5t-167.5 103.5t-104 160.5t-55 197.5 t-15 227zM285 707q0 -102 9 -181.5t36 -161.5t72 -136t122.5 -88t182.5 -34q76 0 137.5 17.5t104.5 47.5t75.5 75.5t52 95t31.5 112.5t16 122.5t4 130.5t-4 129t-16 119t-31.5 108t-52 90t-76 71t-104.5 44t-137 16t-137.5 -16t-105 -44t-75.5 -71t-52 -90t-31.5 -108 t-16 -119t-4.5 -129zM385 1509v220h121v-220h-121zM907 1509v220h121v-220h-121z" />
<glyph unicode="&#xdb;" horiz-adv-x="1310" d="M145 492v901h152v-901q0 -40 2 -71t10.5 -73t23 -74t42 -65t65 -54.5t94.5 -35t128 -13.5q67 0 121.5 13.5t90.5 35t62.5 54.5t41 65t23 73.5t11 73.5t2.5 71v901h151v-901q0 -263 -128 -387.5t-382 -124.5t-382 124.5t-128 387.5zM391 1495l219 246h90l220 -246h-82 l-183 178l-182 -178h-82z" />
<glyph unicode="&#xdc;" horiz-adv-x="1310" d="M145 492v901h152v-901q0 -40 2 -71t10.5 -73t23 -74t42 -65t65 -54.5t94.5 -35t128 -13.5q67 0 121.5 13.5t90.5 35t62.5 54.5t41 65t23 73.5t11 73.5t2.5 71v901h151v-901q0 -263 -128 -387.5t-382 -124.5t-382 124.5t-128 387.5zM334 1509v220h121v-220h-121zM856 1509 v220h121v-220h-121z" />
<glyph unicode="&#xe2;" horiz-adv-x="1034" d="M94 274q0 159 113.5 234.5t316.5 75.5h242v116q0 116 -59 170t-195 54q-144 0 -328 -37l-22 117q200 40 381 40q93 0 158 -15.5t113.5 -53.5t71.5 -103.5t23 -162.5v-709h-143v102h-4q-79 -65 -156 -93.5t-178 -28.5q-154 0 -244 79.5t-90 214.5zM238 287q0 -89 64 -142 t179 -53q163 0 285 98v304h-234q-160 0 -227 -53t-67 -154zM272 1147l220 246h90l219 -246h-82l-182 178l-183 -178h-82z" />
<glyph unicode="&#xe7;" horiz-adv-x="983" d="M104 512q0 532 490 532q163 0 342 -45l-27 -116q-160 41 -315 41q-174 0 -256 -111.5t-82 -300.5t82 -300.5t256 -111.5q155 0 315 41l27 -116q-176 -45 -336 -45v-95q72 -5 122 -40t50 -107t-52.5 -115t-144.5 -43q-62 0 -145 25l10 51q66 -16 113 -16q67 0 97 33t30 73 q0 39 -31.5 70t-107.5 32v134q-437 24 -437 530z" />
<glyph unicode="&#xee;" horiz-adv-x="393" d="M-68 1147l220 246h90l219 -246h-82l-182 178l-183 -178h-82zM125 0v1024h143v-1024h-143z" />
<glyph unicode="&#xf6;" horiz-adv-x="1126" d="M104 512q0 250 110 391t349 141t349 -141t110 -391t-110 -391t-349 -141t-349 141t-110 391zM238 1171v222h120v-222h-120zM256 512q0 -412 307 -412t307 412t-307 412t-307 -412zM760 1171v222h121v-222h-121z" />
<glyph unicode="&#xfb;" d="M125 315v709h143v-678q0 -246 226 -246q146 0 323 138v786h144v-1024h-144v147h-4q-177 -167 -381 -167q-153 0 -230 85t-77 250zM279 1147l219 246h90l219 -246h-82l-182 178l-183 -178h-81z" />
<glyph unicode="&#xfc;" d="M125 315v709h143v-678q0 -246 226 -246q146 0 323 138v786h144v-1024h-144v147h-4q-177 -167 -381 -167q-153 0 -230 85t-77 250zM221 1171v222h121v-222h-121zM743 1171v222h121v-222h-121z" />
<glyph unicode="&#x100;" horiz-adv-x="1331" d="M84 0l494 1403h188l481 -1403h-168l-127 373h-577l-131 -373h-160zM354 1579v90h621v-90h-621zM408 500h514l-252 714h-4z" />
<glyph unicode="&#x101;" horiz-adv-x="1034" d="M94 274q0 159 113.5 234.5t316.5 75.5h242v116q0 116 -59 170t-195 54q-144 0 -328 -37l-22 117q200 40 381 40q93 0 158 -15.5t113.5 -53.5t71.5 -103.5t23 -162.5v-709h-143v102h-4q-79 -65 -156 -93.5t-178 -28.5q-154 0 -244 79.5t-90 214.5zM233 1231v90h621v-90 h-621zM238 287q0 -89 64 -142t179 -53q163 0 285 98v304h-234q-160 0 -227 -53t-67 -154z" />
<glyph unicode="&#x102;" horiz-adv-x="1331" d="M84 0l494 1403h188l481 -1403h-168l-127 373h-577l-131 -373h-160zM387 1776h66q8 -34 23 -64t39.5 -58t63.5 -44.5t87 -16.5q164 0 215 183h63q-20 -134 -93.5 -201.5t-184.5 -67.5t-184.5 67.5t-94.5 201.5zM408 500h514l-252 714h-4z" />
<glyph unicode="&#x103;" horiz-adv-x="1034" d="M94 274q0 159 113.5 234.5t316.5 75.5h242v116q0 116 -59 170t-195 54q-144 0 -328 -37l-22 117q200 40 381 40q93 0 158 -15.5t113.5 -53.5t71.5 -103.5t23 -162.5v-709h-143v102h-4q-79 -65 -156 -93.5t-178 -28.5q-154 0 -244 79.5t-90 214.5zM238 287q0 -89 64 -142 t179 -53q163 0 285 98v304h-234q-160 0 -227 -53t-67 -154zM279 1427h65q8 -34 23 -63.5t39.5 -57.5t63.5 -44.5t87 -16.5q164 0 215 182h64q-20 -134 -94 -201t-185 -67t-184 67t-94 201z" />
<glyph unicode="&#x104;" horiz-adv-x="1331" d="M84 0l494 1403h188l481 -1403q-83 -28 -138.5 -99t-55.5 -137q0 -53 30 -82.5t86 -29.5q15 0 29 2t23.5 4.5t22.5 8t18 8.5t17.5 10t14.5 8l9 -41q-76 -60 -179 -60q-71 0 -120.5 37t-49.5 105q0 71 49 141t127 125h-51l-127 373h-577l-131 -373h-160zM408 500h514 l-252 714h-2z" />
<glyph unicode="&#x105;" horiz-adv-x="1034" d="M94 274q0 159 113.5 234.5t316.5 75.5h242v116q0 116 -59 170t-195 54q-144 0 -328 -37l-22 117q200 40 381 40q93 0 158 -15.5t113.5 -53.5t71.5 -103.5t23 -162.5v-709q-84 -32 -137 -101.5t-53 -134.5q0 -53 30.5 -82.5t86.5 -29.5q28 0 55.5 8.5t36.5 13.5t33 19 l10 -41q-76 -60 -180 -60q-68 0 -119 36t-51 108q0 68 47.5 137.5t128.5 126.5h-31v102h-4q-79 -65 -156 -93.5t-178 -28.5q-154 0 -244 79.5t-90 214.5zM238 287q0 -89 64 -142t179 -53q163 0 285 98v304h-234q-160 0 -227 -53t-67 -154z" />
<glyph unicode="&#x106;" horiz-adv-x="1269" d="M125 707q0 87 7.5 161.5t26 147.5t48 131.5t75 109t105 84.5t140.5 53t180 19q234 0 471 -70l-35 -126q-149 36 -240 48.5t-184 12.5q-104 0 -181.5 -30.5t-125 -81t-77 -126.5t-40 -155t-10.5 -178q0 -105 10.5 -188t40 -161t77 -129.5t125 -82.5t181.5 -31 q93 0 184 12.5t240 48.5l35 -127q-234 -69 -471 -69q-115 0 -206 25.5t-153.5 74.5t-107 113t-69 148.5t-35.5 172.5t-11 193zM694 1477l129 245h121l-168 -245h-82z" />
<glyph unicode="&#x107;" horiz-adv-x="983" d="M104 512q0 532 490 532q163 0 342 -45l-27 -116q-160 41 -315 41q-174 0 -256 -111.5t-82 -300.5t82 -300.5t256 -111.5q155 0 315 41l27 -116q-179 -45 -342 -45q-490 0 -490 532zM504 1147l129 246h121l-168 -246h-82z" />
<glyph unicode="&#x108;" horiz-adv-x="1269" d="M125 707q0 87 7.5 161.5t26 147.5t48 131.5t75 109t105 84.5t140.5 53t180 19q234 0 471 -70l-35 -126q-149 36 -240 48.5t-184 12.5q-104 0 -181.5 -30.5t-125 -81t-77 -126.5t-40 -155t-10.5 -178q0 -105 10.5 -188t40 -161t77 -129.5t125 -82.5t181.5 -31 q93 0 184 12.5t240 48.5l35 -127q-234 -69 -471 -69q-115 0 -206 25.5t-153.5 74.5t-107 113t-69 148.5t-35.5 172.5t-11 193zM459 1495l219 246h90l219 -246h-82l-182 178l-182 -178h-82z" />
<glyph unicode="&#x109;" horiz-adv-x="983" d="M104 512q0 532 490 532q163 0 342 -45l-27 -116q-160 41 -315 41q-174 0 -256 -111.5t-82 -300.5t82 -300.5t256 -111.5q155 0 315 41l27 -116q-179 -45 -342 -45q-490 0 -490 532zM301 1147l219 246h90l219 -246h-81l-183 178l-182 -178h-82z" />
<glyph unicode="&#x10a;" horiz-adv-x="1269" d="M125 707q0 87 7.5 161.5t26 147.5t48 131.5t75 109t105 84.5t140.5 53t180 19q234 0 471 -70l-35 -126q-149 36 -240 48.5t-184 12.5q-104 0 -181.5 -30.5t-125 -81t-77 -126.5t-40 -155t-10.5 -178q0 -105 10.5 -188t40 -161t77 -129.5t125 -82.5t181.5 -31 q93 0 184 12.5t240 48.5l35 -127q-234 -69 -471 -69q-115 0 -206 25.5t-153.5 74.5t-107 113t-69 148.5t-35.5 172.5t-11 193zM670 1520v221h129v-221h-129z" />
<glyph unicode="&#x10b;" horiz-adv-x="983" d="M104 512q0 532 490 532q163 0 342 -45l-27 -116q-160 41 -315 41q-174 0 -256 -111.5t-82 -300.5t82 -300.5t256 -111.5q155 0 315 41l27 -116q-179 -45 -342 -45q-490 0 -490 532zM514 1171v222h129v-222h-129z" />
<glyph unicode="&#x10c;" horiz-adv-x="1269" d="M125 707q0 87 7.5 161.5t26 147.5t48 131.5t75 109t105 84.5t140.5 53t180 19q234 0 471 -70l-35 -126q-149 36 -240 48.5t-184 12.5q-104 0 -181.5 -30.5t-125 -81t-77 -126.5t-40 -155t-10.5 -178q0 -105 10.5 -188t40 -161t77 -129.5t125 -82.5t181.5 -31 q93 0 184 12.5t240 48.5l35 -127q-234 -69 -471 -69q-115 0 -206 25.5t-153.5 74.5t-107 113t-69 148.5t-35.5 172.5t-11 193zM475 1722h82l182 -180l183 180h82l-220 -245h-90z" />
<glyph unicode="&#x10d;" horiz-adv-x="983" d="M104 512q0 532 490 532q163 0 342 -45l-27 -116q-160 41 -315 41q-174 0 -256 -111.5t-82 -300.5t82 -300.5t256 -111.5q155 0 315 41l27 -116q-179 -45 -342 -45q-490 0 -490 532zM328 1393h82l182 -181l182 181h82l-219 -246h-90z" />
<glyph unicode="&#x10e;" horiz-adv-x="1331" d="M145 0v1393h486q130 0 230 -34.5t164.5 -95t105.5 -148.5t58 -187.5t17 -220.5q0 -707 -575 -707h-486zM297 135h334q98 0 172 30.5t120 81.5t74.5 126.5t39 155.5t10.5 178t-11 176t-39 150t-74 119.5t-120 76t-172 28.5h-334v-1122zM354 1722h82l182 -180l183 180h82 l-219 -245h-91z" />
<glyph unicode="&#x10f;" d="M104 512q0 116 21 210t66 167.5t121.5 114t181.5 40.5q91 0 175.5 -31.5t143.5 -86.5h4v508h144v-1434h-144v102h-4q-60 -56 -147 -89t-181 -33q-84 0 -149.5 27t-108.5 74t-71 115t-40 145.5t-12 170.5zM256 512q0 -412 285 -412q84 0 157.5 30.5t118.5 68.5v626 q-45 38 -118.5 68.5t-157.5 30.5q-64 0 -114 -22t-82 -59.5t-52.5 -91t-28.5 -112t-8 -127.5zM1075 1280v154h129v-154l-71 -176h-50l31 176h-39z" />
<glyph unicode="&#x110;" horiz-adv-x="1345" d="M43 662v90h119v641h485q129 0 229 -34.5t164.5 -95t105.5 -148.5t58 -187.5t17 -220.5q0 -707 -574 -707h-485v662h-119zM311 135h336q98 0 172 30.5t120 81.5t74.5 126.5t39 155.5t10.5 178t-11 176t-39 150t-74 119.5t-120 76t-172 28.5h-336v-505h256v-90h-256v-527z " />
<glyph unicode="&#x111;" d="M104 512q0 116 21 210t66 167.5t121.5 114t181.5 40.5q91 0 175.5 -31.5t143.5 -86.5h4v237h-231v90h231v181h144v-181h143v-90h-143v-1163h-144v102h-4q-60 -56 -147 -89t-181 -33q-84 0 -149.5 27t-108.5 74t-71 115t-40 145.5t-12 170.5zM256 512q0 -412 285 -412 q84 0 157.5 30.5t118.5 68.5v626q-45 38 -118.5 68.5t-157.5 30.5q-64 0 -114 -22t-82 -59.5t-52.5 -91t-28.5 -112t-8 -127.5z" />
<glyph unicode="&#x112;" horiz-adv-x="1146" d="M145 0v1393h867v-136h-715v-466h623v-136h-623v-520h725v-135h-877zM279 1579v90h620v-90h-620z" />
<glyph unicode="&#x113;" d="M104 512q0 532 490 532q92 0 162.5 -22t114 -57.5t71.5 -85t39 -98.5t12 -105q5 -71 -14 -182h-719q7 -394 367 -394q184 0 319 41l19 -116q-158 -45 -359 -45q-502 0 -502 532zM260 588h580q13 65 8 121q-7 99 -69.5 161t-192.5 62q-301 0 -326 -344zM268 1231v90h621 v-90h-621z" />
<glyph unicode="&#x114;" horiz-adv-x="1146" d="M145 0v1393h867v-136h-715v-466h623v-136h-623v-520h725v-135h-877zM311 1776h66q8 -34 23 -64t39.5 -58t63.5 -44.5t87 -16.5q164 0 215 183h63q-20 -134 -93.5 -201.5t-184.5 -67.5t-184.5 67.5t-94.5 201.5z" />
<glyph unicode="&#x115;" d="M104 512q0 532 490 532q92 0 162.5 -22t114 -57.5t71.5 -85t39 -98.5t12 -105q5 -71 -14 -182h-719q7 -394 367 -394q184 0 319 41l19 -116q-158 -45 -359 -45q-502 0 -502 532zM260 588h580q13 65 8 121q-7 99 -69.5 161t-192.5 62q-301 0 -326 -344zM313 1427h66 q8 -34 23 -63.5t39.5 -57.5t63.5 -44.5t87 -16.5q164 0 215 182h63q-20 -134 -93.5 -201t-184.5 -67t-184.5 67t-94.5 201z" />
<glyph unicode="&#x116;" horiz-adv-x="1146" d="M145 0v1393h867v-136h-715v-466h623v-136h-623v-520h725v-135h-877zM522 1520v221h129v-221h-129z" />
<glyph unicode="&#x117;" d="M104 512q0 532 490 532q92 0 162.5 -22t114 -57.5t71.5 -85t39 -98.5t12 -105q5 -71 -14 -182h-719q7 -394 367 -394q184 0 319 41l19 -116q-158 -45 -359 -45q-502 0 -502 532zM260 588h580q13 65 8 121q-7 99 -69.5 161t-192.5 62q-301 0 -326 -344zM520 1171v222h129 v-222h-129z" />
<glyph unicode="&#x118;" horiz-adv-x="1146" d="M145 0v1393h867v-136h-715v-466h623v-136h-623v-520h725v-135q-65 -49 -109.5 -115t-44.5 -121q0 -53 30.5 -82.5t86.5 -29.5q28 0 55.5 8.5t36.5 13.5t33 19l10 -41q-76 -60 -180 -60q-70 0 -120 37t-50 105q0 137 174 266h-799z" />
<glyph unicode="&#x119;" d="M104 512q0 532 490 532q86 0 154 -19t112 -50t74 -76t43.5 -93t17.5 -104q7 -92 -16 -208h-719q7 -394 367 -394q184 0 319 41l19 -116q-65 -49 -108.5 -115t-43.5 -123q0 -53 30 -82t87 -29q15 0 29 2t23.5 4.5t22.5 8t18 8.5t17.5 10t14.5 8l8 -41q-75 -59 -178 -59 q-72 0 -122 36.5t-50 104.5q0 52 34 117t113 127q-139 -22 -254 -22q-502 0 -502 532zM260 588h580q13 65 8 121q-7 99 -69.5 161t-192.5 62q-301 0 -326 -344z" />
<glyph unicode="&#x11a;" horiz-adv-x="1146" d="M145 0v1393h867v-136h-715v-466h623v-136h-623v-520h725v-135h-877zM324 1722h82l182 -180l182 180h82l-219 -245h-90z" />
<glyph unicode="&#x11b;" d="M104 512q0 532 490 532q92 0 162.5 -22t114 -57.5t71.5 -85t39 -98.5t12 -105q5 -71 -14 -182h-719q7 -394 367 -394q184 0 319 41l19 -116q-158 -45 -359 -45q-502 0 -502 532zM260 588h580q13 65 8 121q-7 99 -69.5 161t-192.5 62q-301 0 -326 -344zM328 1393h82 l182 -181l182 181h82l-219 -246h-90z" />
<glyph unicode="&#x11c;" horiz-adv-x="1310" d="M125 707q0 87 7.5 161.5t26 147.5t48 131.5t75 109t105 84.5t140.5 53t180 19q218 0 458 -70l-35 -126q-151 37 -236 49t-175 12q-104 0 -181.5 -30.5t-125 -81t-77 -126.5t-40 -155t-10.5 -178q0 -105 10.5 -188t40 -161t77 -129.5t125 -82.5t181.5 -31q157 0 295 84 v366h-293v135h444v-604q-83 -38 -133 -57.5t-140 -39t-185 -19.5q-115 0 -206 25.5t-153.5 74.5t-107 113t-69 148.5t-35.5 172.5t-11 193zM449 1495l219 246h90l219 -246h-82l-182 178l-183 -178h-81z" />
<glyph unicode="&#x11d;" horiz-adv-x="1136" d="M72 -164q0 71 45 128t141 108v4q-86 45 -76 139q3 51 36 102.5t91 88.5v4q-80 39 -126 113t-46 173q0 164 107.5 256t298.5 92q63 0 137 -20h352v-90h-217q123 -77 123 -238q0 -163 -110 -249.5t-285 -86.5q-91 0 -158 27q-31 -31 -49 -68q-18 -35 -20 -68.5t18 -57 t61 -25.5l377 -23q156 -10 224.5 -67t68.5 -158q0 -350 -584 -350q-409 0 -409 266zM193 -141q0 -90 79 -141.5t242 -51.5q112 0 200.5 25t143.5 78t55 127q0 123 -190 133l-389 20q-72 -48 -106.5 -88.5t-34.5 -101.5zM272 696q0 -112 72 -174.5t199 -62.5q121 0 192.5 64 t71.5 173q0 113 -72 181.5t-192 68.5q-132 0 -201.5 -67t-69.5 -183zM295 1147l219 246h90l219 -246h-82l-182 178l-182 -178h-82z" />
<glyph unicode="&#x11e;" horiz-adv-x="1310" d="M125 707q0 87 7.5 161.5t26 147.5t48 131.5t75 109t105 84.5t140.5 53t180 19q218 0 458 -70l-35 -126q-151 37 -236 49t-175 12q-104 0 -181.5 -30.5t-125 -81t-77 -126.5t-40 -155t-10.5 -178q0 -105 10.5 -188t40 -161t77 -129.5t125 -82.5t181.5 -31q157 0 295 84 v366h-293v135h444v-604q-83 -38 -133 -57.5t-140 -39t-185 -19.5q-115 0 -206 25.5t-153.5 74.5t-107 113t-69 148.5t-35.5 172.5t-11 193zM432 1776h66q8 -34 23 -64t39.5 -58t63.5 -44.5t87 -16.5q164 0 215 183h63q-20 -134 -93.5 -201.5t-184.5 -67.5t-184.5 67.5 t-94.5 201.5z" />
<glyph unicode="&#x11f;" horiz-adv-x="1136" d="M72 -164q0 71 45 128t141 108v4q-86 45 -76 139q3 51 36 102.5t91 88.5v4q-80 39 -126 113t-46 173q0 164 107.5 256t298.5 92q63 0 137 -20h352v-90h-217q123 -77 123 -238q0 -163 -110 -249.5t-285 -86.5q-91 0 -158 27q-31 -31 -49 -68q-18 -35 -20 -68.5t18 -57 t61 -25.5l377 -23q156 -10 224.5 -67t68.5 -158q0 -350 -584 -350q-409 0 -409 266zM193 -141q0 -90 79 -141.5t242 -51.5q112 0 200.5 25t143.5 78t55 127q0 123 -190 133l-389 20q-72 -48 -106.5 -88.5t-34.5 -101.5zM264 1427h66q8 -34 23 -63.5t39.5 -57.5t63.5 -44.5 t87 -16.5q164 0 215 182h63q-20 -134 -93.5 -201t-184.5 -67t-184.5 67t-94.5 201zM272 696q0 -112 72 -174.5t199 -62.5q121 0 192.5 64t71.5 173q0 113 -72 181.5t-192 68.5q-132 0 -201.5 -67t-69.5 -183z" />
<glyph unicode="&#x120;" horiz-adv-x="1310" d="M125 707q0 87 7.5 161.5t26 147.5t48 131.5t75 109t105 84.5t140.5 53t180 19q218 0 458 -70l-35 -126q-151 37 -236 49t-175 12q-104 0 -181.5 -30.5t-125 -81t-77 -126.5t-40 -155t-10.5 -178q0 -105 10.5 -188t40 -161t77 -129.5t125 -82.5t181.5 -31q157 0 295 84 v366h-293v135h444v-604q-83 -38 -133 -57.5t-140 -39t-185 -19.5q-115 0 -206 25.5t-153.5 74.5t-107 113t-69 148.5t-35.5 172.5t-11 193zM629 1520v221h129v-221h-129z" />
<glyph unicode="&#x121;" horiz-adv-x="1136" d="M72 -164q0 71 45 128t141 108v4q-86 45 -76 139q3 51 36 102.5t91 88.5v4q-80 39 -126 113t-46 173q0 164 107.5 256t298.5 92q63 0 137 -20h352v-90h-217q123 -77 123 -238q0 -163 -110 -249.5t-285 -86.5q-91 0 -158 27q-31 -31 -49 -68q-18 -35 -20 -68.5t18 -57 t61 -25.5l377 -23q156 -10 224.5 -67t68.5 -158q0 -350 -584 -350q-409 0 -409 266zM193 -141q0 -90 79 -141.5t242 -51.5q112 0 200.5 25t143.5 78t55 127q0 123 -190 133l-389 20q-72 -48 -106.5 -88.5t-34.5 -101.5zM272 696q0 -112 72 -174.5t199 -62.5q121 0 192.5 64 t71.5 173q0 113 -72 181.5t-192 68.5q-132 0 -201.5 -67t-69.5 -183zM477 1171v222h129v-222h-129z" />
<glyph unicode="&#x122;" horiz-adv-x="1310" d="M125 707q0 87 7.5 161.5t26 147.5t48 131.5t75 109t105 84.5t140.5 53t180 19q218 0 458 -70l-35 -126q-151 37 -236 49t-175 12q-104 0 -181.5 -30.5t-125 -81t-77 -126.5t-40 -155t-10.5 -178q0 -105 10.5 -188t40 -161t77 -129.5t125 -82.5t181.5 -31q157 0 295 84 v366h-293v135h444v-604q-83 -38 -133 -57.5t-140 -39t-185 -19.5q-115 0 -206 25.5t-153.5 74.5t-107 113t-69 148.5t-35.5 172.5t-11 193zM653 -82h129v-154l-71 -176h-49l30 176h-39v154z" />
<glyph unicode="&#x123;" horiz-adv-x="1136" d="M72 -164q0 71 45 128t141 108v4q-86 45 -76 139q3 51 36 102.5t91 88.5v4q-80 39 -126 113t-46 173q0 164 107.5 256t298.5 92q63 0 137 -20h352v-90h-217q123 -77 123 -238q0 -163 -110 -249.5t-285 -86.5q-91 0 -158 27q-31 -31 -49 -68q-18 -35 -20 -68.5t18 -57 t61 -25.5l377 -23q156 -10 224.5 -67t68.5 -158q0 -350 -584 -350q-409 0 -409 266zM193 -141q0 -90 79 -141.5t242 -51.5q112 0 200.5 25t143.5 78t55 127q0 123 -190 133l-389 20q-72 -48 -106.5 -88.5t-34.5 -101.5zM272 696q0 -112 72 -174.5t199 -62.5q121 0 192.5 64 t71.5 173q0 113 -72 181.5t-192 68.5q-132 0 -201.5 -67t-69.5 -183zM483 1167v154l72 176h49l-31 -176h39v-154h-129z" />
<glyph unicode="&#x124;" horiz-adv-x="1310" d="M145 0v1393h152v-602h717v602h151v-1393h-151v655h-717v-655h-152zM391 1495l219 246h90l220 -246h-82l-183 178l-182 -178h-82z" />
<glyph unicode="&#x125;" d="M-68 1536l220 246h90l219 -246h-82l-182 178l-183 -178h-82zM125 0v1434h143v-560h4q177 170 381 170q153 0 230.5 -85.5t77.5 -249.5v-709h-144v678q0 246 -225 246q-147 0 -324 -138v-786h-143z" />
<glyph unicode="&#x126;" horiz-adv-x="1310" d="M2 1081v90h143v222h152v-222h717v222h151v-222h144v-90h-144v-1081h-151v655h-717v-655h-152v1081h-143zM297 791h717v290h-717v-290z" />
<glyph unicode="&#x127;" d="M-18 1163v90h143v181h143v-181h232v-90h-232v-289h4q177 170 381 170q153 0 230.5 -85.5t77.5 -249.5v-709h-144v678q0 246 -225 246q-147 0 -324 -138v-786h-143v1163h-143z" />
<glyph unicode="&#x128;" horiz-adv-x="442" d="M-109 1561q63 90 112.5 125.5t105.5 35.5q42 0 94 -29t99 -58t75 -29q73 0 133 98l41 -43q-70 -145 -174 -145q-39 0 -132 56t-132 56q-41 0 -73 -17.5t-99 -86.5zM143 0v1393h152v-1393h-152z" />
<glyph unicode="&#x129;" horiz-adv-x="393" d="M-133 1212q63 90 112.5 126t104.5 36q33 0 73.5 -18.5t71.5 -40t65.5 -40t57.5 -18.5q72 0 133 99l41 -43q-70 -146 -174 -146q-39 0 -132 56.5t-132 56.5q-41 0 -73 -17.5t-99 -86.5zM125 0v1024h143v-1024h-143z" />
<glyph unicode="&#x12a;" horiz-adv-x="442" d="M-90 1579v90h620v-90h-620zM137 0v1393h152v-1393h-152z" />
<glyph unicode="&#x12b;" horiz-adv-x="393" d="M-115 1231v90h621v-90h-621zM125 0v1024h143v-1024h-143z" />
<glyph unicode="&#x12c;" horiz-adv-x="442" d="M-57 1776h65q8 -34 23 -64t39.5 -58t63.5 -44.5t87 -16.5q164 0 215 183h64q-20 -134 -94 -201.5t-185 -67.5t-184 67.5t-94 201.5zM150 0v1393h151v-1393h-151z" />
<glyph unicode="&#x12d;" horiz-adv-x="393" d="M-82 1427h66q8 -34 23 -63.5t39.5 -57.5t63.5 -44.5t87 -16.5q164 0 215 182h63q-20 -134 -93.5 -201t-184.5 -67t-184.5 67t-94.5 201zM125 0v1024h143v-1024h-143z" />
<glyph unicode="&#x12e;" horiz-adv-x="442" d="M12 -266q0 72 49 142t127 124h-43v1393h152v-1393q-84 -35 -135 -103.5t-51 -132.5q0 -53 30 -82.5t86 -29.5q15 0 29 2t23.5 4.5t22.5 8t18 8.5t17.5 10t14.5 8l8 -41q-76 -60 -178 -60q-71 0 -120.5 37t-49.5 105z" />
<glyph unicode="&#x12f;" horiz-adv-x="393" d="M-6 -266q0 72 47 140.5t127 125.5q-7 14 -21.5 40.5t-21.5 39.5v944h143v-1024q-75 -32 -125.5 -104t-50.5 -132q0 -53 30.5 -82.5t86.5 -29.5q28 0 55.5 8.5t36.5 13.5t33 19l10 -41q-76 -60 -180 -60q-69 0 -119.5 37.5t-50.5 104.5zM125 1190v244h143v-244h-143z" />
<glyph unicode="&#x130;" horiz-adv-x="442" d="M145 0v1393h152v-1393h-152zM156 1520v221h129v-221h-129z" />
<glyph unicode="&#x131;" horiz-adv-x="393" d="M125 0v1024h143v-1024h-143z" />
<glyph unicode="&#x132;" horiz-adv-x="1110" d="M145 0v1393h152v-1393h-152zM483 -6l13 127q85 -10 122 -10q104 0 149.5 55.5t45.5 179.5v1047h152v-1055q0 -195 -77 -276.5t-231 -81.5q-85 0 -174 14z" />
<glyph unicode="&#x133;" horiz-adv-x="780" d="M125 0v1024h143v-1024h-143zM125 1149v244h143v-244h-143zM213 -416l14 113q59 -10 113 -10q97 0 133.5 36.5t36.5 131.5v1169h143v-1184q0 -146 -63.5 -208t-218.5 -62q-65 0 -158 14zM510 1149v244h143v-244h-143z" />
<glyph unicode="&#x134;" horiz-adv-x="667" d="M39 -6l14 127q82 -10 123 -10q104 0 149.5 55.5t45.5 179.5v1047h151v-1055q0 -195 -76.5 -276.5t-230.5 -81.5q-83 0 -176 14zM182 1495l219 246h91l219 -246h-82l-183 178l-182 -178h-82z" />
<glyph unicode="&#x135;" horiz-adv-x="475" d="M-90 -416l14 113q59 -10 111 -10q98 0 135 36.5t37 131.5v1169h143v-1184q0 -146 -63.5 -208t-220.5 -62q-63 0 -156 14zM14 1147l219 246h91l219 -246h-82l-182 178l-183 -178h-82z" />
<glyph unicode="&#x136;" horiz-adv-x="1275" d="M145 0v1393h152v-766l694 766h180l-507 -574l522 -819h-191l-442 698l-256 -278v-420h-152zM578 -68h129v-153l-72 -176h-49l30 176h-38v153z" />
<glyph unicode="&#x137;" horiz-adv-x="1095" d="M125 0v1434h143v-859l545 449h178l-397 -346l418 -678h-170l-348 598l-226 -182v-416h-143zM467 -82h129v-154l-72 -176h-49l31 176h-39v154z" />
<glyph unicode="&#x138;" horiz-adv-x="1095" d="M125 0v1024h143v-449l545 449h178l-397 -346l418 -678h-170l-348 598l-226 -182v-416h-143z" />
<glyph unicode="&#x139;" horiz-adv-x="1105" d="M145 0v1393h152v-1258h704v-135h-856zM178 1477l129 245h121l-168 -245h-82z" />
<glyph unicode="&#x13a;" horiz-adv-x="393" d="M125 0v1434h143v-1434h-143zM158 1536l129 246h121l-168 -246h-82z" />
<glyph unicode="&#x13b;" horiz-adv-x="1105" d="M145 0v1393h152v-1258h704v-135h-856zM520 -66h129v-153l-71 -176h-50l31 176h-39v153z" />
<glyph unicode="&#x13c;" horiz-adv-x="393" d="M125 0v1434h143v-1434h-143zM133 -82h129v-154l-72 -176h-49l31 176h-39v154z" />
<glyph unicode="&#x13d;" horiz-adv-x="1105" d="M145 0v1393h152v-1258h704v-135h-856zM528 1239v154h129v-154l-71 -176h-49l30 176h-39z" />
<glyph unicode="&#x13e;" horiz-adv-x="448" d="M125 0v1434h143v-1434h-143zM371 1280v154h129v-154l-72 -176h-49l31 176h-39z" />
<glyph unicode="&#x13f;" horiz-adv-x="1105" d="M145 0v1393h152v-1258h704v-135h-856zM567 659v236h129v-236h-129z" />
<glyph unicode="&#x140;" horiz-adv-x="546" d="M125 0v1434h143v-1434h-143zM383 618v236h129v-236h-129z" />
<glyph unicode="&#x141;" horiz-adv-x="1126" d="M23 674v90l143 35v594h151v-559l230 55v-88l-230 -58v-608h705v-135h-856v709z" />
<glyph unicode="&#x142;" horiz-adv-x="475" d="M-41 621v90l207 51v672h143v-637l207 51v-88l-207 -51v-709h-143v672z" />
<glyph unicode="&#x143;" horiz-adv-x="1331" d="M145 0v1393h152l737 -1112h4v1112h148v-1393h-152l-737 1098h-4v-1098h-148zM633 1477l129 245h121l-168 -245h-82z" />
<glyph unicode="&#x144;" d="M125 0v1024h143v-150h4q177 170 381 170q153 0 230.5 -85.5t77.5 -249.5v-709h-144v678q0 246 -225 246q-147 0 -324 -138v-786h-143zM492 1147l129 246h120l-168 -246h-81z" />
<glyph unicode="&#x145;" horiz-adv-x="1331" d="M145 0v1393h152l737 -1112h4v1112h148v-1393h-152l-737 1098h-4v-1098h-148zM604 -82h129v-154l-71 -176h-50l31 176h-39v154z" />
<glyph unicode="&#x146;" d="M125 0v1024h143v-150h4q177 170 381 170q153 0 230.5 -85.5t77.5 -249.5v-709h-144v678q0 246 -225 246q-147 0 -324 -138v-786h-143zM473 1147v153l72 177h49l-31 -177h39v-153h-129z" />
<glyph unicode="&#x147;" horiz-adv-x="1331" d="M145 0v1393h152l737 -1112h4v1112h148v-1393h-152l-737 1098h-4v-1098h-148zM401 1722h82l183 -180l182 180h82l-219 -245h-90z" />
<glyph unicode="&#x148;" d="M125 0v1024h143v-150h4q177 170 381 170q153 0 230.5 -85.5t77.5 -249.5v-709h-144v678q0 246 -225 246q-147 0 -324 -138v-786h-143zM279 1393h81l183 -181l182 181h82l-219 -246h-90z" />
<glyph unicode="&#x149;" d="M125 0v1024h143v-150h4q177 170 381 170q153 0 230.5 -85.5t77.5 -249.5v-709h-144v678q0 246 -225 246q-147 0 -324 -138v-786h-143zM137 1280v154h129v-154l-71 -176h-50l31 176h-39z" />
<glyph unicode="&#x14a;" horiz-adv-x="1331" d="M145 0v1393h152l737 -1112h4v1112h148v-1555q0 -146 -64.5 -208t-220.5 -62q-67 0 -156 14l15 113q59 -10 110 -10q98 0 135 36.5t37 131.5v147l-745 1098h-4v-1098h-148z" />
<glyph unicode="&#x14b;" d="M125 0v1024h143v-150h4q177 170 381 170q153 0 230.5 -85.5t77.5 -249.5v-869q0 -146 -64.5 -208t-220.5 -62q-67 0 -156 14l15 113q59 -10 110 -10q98 0 135 36.5t37 131.5v823q0 246 -225 246q-147 0 -324 -138v-786h-143z" />
<glyph unicode="&#x14c;" horiz-adv-x="1413" d="M125 707q0 87 7.5 161.5t26 147.5t48 131.5t75 109t105 84.5t140.5 53t180 19q137 0 240 -37t167 -99t104 -155t55 -192.5t15 -222.5q0 -104 -10.5 -191t-35.5 -171.5t-69 -149t-106.5 -114t-154 -75.5t-205.5 -26q-137 0 -240.5 38.5t-167.5 103.5t-104 160.5t-55 197.5 t-15 227zM285 707q0 -102 9 -181.5t36 -161.5t72 -136t122.5 -88t182.5 -34q76 0 137.5 17.5t104.5 47.5t75.5 75.5t52 95t31.5 112.5t16 122.5t4 130.5t-4 129t-16 119t-31.5 108t-52 90t-76 71t-104.5 44t-137 16t-137.5 -16t-105 -44t-75.5 -71t-52 -90t-31.5 -108 t-16 -119t-4.5 -129zM395 1579v90h621v-90h-621z" />
<glyph unicode="&#x14d;" horiz-adv-x="1126" d="M104 512q0 250 110 391t349 141t349 -141t110 -391t-110 -391t-349 -141t-349 141t-110 391zM252 1231v90h620v-90h-620zM256 512q0 -412 307 -412t307 412t-307 412t-307 -412z" />
<glyph unicode="&#x14e;" horiz-adv-x="1413" d="M125 707q0 87 7.5 161.5t26 147.5t48 131.5t75 109t105 84.5t140.5 53t180 19q137 0 240 -37t167 -99t104 -155t55 -192.5t15 -222.5q0 -104 -10.5 -191t-35.5 -171.5t-69 -149t-106.5 -114t-154 -75.5t-205.5 -26q-137 0 -240.5 38.5t-167.5 103.5t-104 160.5t-55 197.5 t-15 227zM285 707q0 -102 9 -181.5t36 -161.5t72 -136t122.5 -88t182.5 -34q76 0 137.5 17.5t104.5 47.5t75.5 75.5t52 95t31.5 112.5t16 122.5t4 130.5t-4 129t-16 119t-31.5 108t-52 90t-76 71t-104.5 44t-137 16t-137.5 -16t-105 -44t-75.5 -71t-52 -90t-31.5 -108 t-16 -119t-4.5 -129zM428 1776h66q8 -34 23 -64t39.5 -58t63.5 -44.5t87 -16.5q164 0 215 183h63q-20 -134 -93.5 -201.5t-184.5 -67.5t-184.5 67.5t-94.5 201.5z" />
<glyph unicode="&#x14f;" horiz-adv-x="1126" d="M104 512q0 250 110 391t349 141t349 -141t110 -391t-110 -391t-349 -141t-349 141t-110 391zM256 512q0 -412 307 -412t307 412t-307 412t-307 -412zM285 1427h65q8 -34 23 -63.5t39.5 -57.5t63.5 -44.5t87 -16.5q164 0 215 182h64q-20 -134 -94 -201t-185 -67t-184 67 t-94 201z" />
<glyph unicode="&#x150;" horiz-adv-x="1413" d="M125 707q0 87 7.5 161.5t26 147.5t48 131.5t75 109t105 84.5t140.5 53t180 19q137 0 240 -37t167 -99t104 -155t55 -192.5t15 -222.5q0 -104 -10.5 -191t-35.5 -171.5t-69 -149t-106.5 -114t-154 -75.5t-205.5 -26q-137 0 -240.5 38.5t-167.5 103.5t-104 160.5t-55 197.5 t-15 227zM285 707q0 -102 9 -181.5t36 -161.5t72 -136t122.5 -88t182.5 -34q76 0 137.5 17.5t104.5 47.5t75.5 75.5t52 95t31.5 112.5t16 122.5t4 130.5t-4 129t-16 119t-31.5 108t-52 90t-76 71t-104.5 44t-137 16t-137.5 -16t-105 -44t-75.5 -71t-52 -90t-31.5 -108 t-16 -119t-4.5 -129zM539 1495l129 246h96l-143 -246h-82zM768 1495l127 246h98l-143 -246h-82z" />
<glyph unicode="&#x151;" horiz-adv-x="1126" d="M104 512q0 250 110 391t349 141t349 -141t110 -391t-110 -391t-349 -141t-349 141t-110 391zM256 512q0 -412 307 -412t307 412t-307 412t-307 -412zM393 1147l129 246h96l-143 -246h-82zM623 1147l127 246h98l-143 -246h-82z" />
<glyph unicode="&#x152;" horiz-adv-x="2125" d="M125 707q0 87 7.5 161.5t26 147.5t48 131.5t75 109t105 84.5t140.5 53t180 19q176 0 275 -77.5t144 -215.5h2v273h863v-136h-715v-466h622v-136h-622v-520h725v-135h-873v281h-2q-14 -60 -41.5 -108t-58 -79t-70.5 -53.5t-73 -34t-71.5 -18t-60 -7.5t-44.5 -1 q-102 0 -185.5 21.5t-143 58t-105 91t-73 115t-45 136.5t-24 148.5t-6.5 156.5zM285 707q0 -102 9 -181.5t36 -161.5t72 -136t122.5 -88t182.5 -34q76 0 137.5 17.5t104.5 47.5t75.5 76t52 96.5t31.5 115.5t16 126.5t4 135.5q0 99 -9.5 176t-37 152.5t-73 124.5t-122 79.5 t-179.5 30.5q-76 0 -137.5 -16t-105 -44t-75.5 -71t-52 -90t-31.5 -108t-16 -119t-4.5 -129z" />
<glyph unicode="&#x153;" horiz-adv-x="1851" d="M104 512q0 250 110 391t349 141q300 0 385 -276q88 276 412 276q96 0 170 -24t117.5 -61t71 -89.5t37 -103t9.5 -107.5t-20 -165h-719q7 -394 367 -394q184 0 319 41l19 -116q-158 -45 -359 -45q-335 0 -424 274q-85 -274 -385 -274q-239 0 -349 141t-110 391zM256 512 q0 -412 307 -412t307 412t-307 412t-307 -412zM1026 588h582q10 52 10 96q0 50 -14 92.5t-44 78.5t-83 56.5t-125 20.5q-301 0 -326 -344z" />
<glyph unicode="&#x154;" horiz-adv-x="1259" d="M145 0v1393h564q195 0 305 -116.5t110 -297.5q0 -155 -85 -261.5t-240 -129.5l370 -588h-178l-350 565h-344v-565h-152zM297 700h383q132 0 210.5 73t78.5 206q0 127 -74 202.5t-201 75.5h-397v-557zM539 1477l129 245h120l-167 -245h-82z" />
<glyph unicode="&#x155;" horiz-adv-x="757" d="M125 0v1024h143v-164h4q78 78 183 131t219 53v-135q-110 0 -220 -42t-186 -95v-772h-143zM324 1147l129 246h120l-167 -246h-82z" />
<glyph unicode="&#x156;" horiz-adv-x="1259" d="M145 0v1393h564q195 0 305 -116.5t110 -297.5q0 -155 -85 -261.5t-240 -129.5l370 -588h-178l-350 565h-344v-565h-152zM297 700h383q132 0 210.5 73t78.5 206q0 127 -74 202.5t-201 75.5h-397v-557zM590 -70h129v-153l-72 -176h-49l31 176h-39v153z" />
<glyph unicode="&#x157;" horiz-adv-x="757" d="M125 0v1024h143v-164h4q78 78 183 131t219 53v-135q-110 0 -220 -42t-186 -95v-772h-143zM133 -82h129v-154l-72 -176h-49l31 176h-39v154z" />
<glyph unicode="&#x158;" horiz-adv-x="1259" d="M145 0v1393h564q195 0 305 -116.5t110 -297.5q0 -155 -85 -261.5t-240 -129.5l370 -588h-178l-350 565h-344v-565h-152zM297 700h383q132 0 210.5 73t78.5 206q0 127 -74 202.5t-201 75.5h-397v-557zM332 1722h82l182 -180l182 180h82l-219 -245h-90z" />
<glyph unicode="&#x159;" horiz-adv-x="757" d="M125 0v1024h143v-164h4q78 78 183 131t219 53v-135q-110 0 -220 -42t-186 -95v-772h-143zM131 1393h82l182 -181l183 181h81l-219 -246h-90z" />
<glyph unicode="&#x15a;" horiz-adv-x="1228" d="M125 49l27 127q250 -61 462 -61q85 0 150.5 22t103.5 58.5t57 80t19 91.5q0 43 -13 78.5t-45.5 63.5t-55 45.5t-76.5 36.5t-72 24.5t-77 21.5l-21 6q-88 22 -162 55t-138.5 82t-101.5 119.5t-37 155.5q0 94 36 164.5t101 112t148 61.5t184 20q224 0 461 -70l-35 -126 q-148 36 -240.5 48.5t-185.5 12.5q-164 0 -236.5 -63.5t-72.5 -163.5q0 -51 26.5 -95t63.5 -71.5t93.5 -52t98.5 -37t97 -25.5q420 -94 420 -391q0 -193 -135.5 -296t-354.5 -103q-255 0 -489 69zM588 1477l129 245h121l-168 -245h-82z" />
<glyph unicode="&#x15b;" horiz-adv-x="983" d="M94 25l27 116q178 -45 385 -45q62 0 108.5 15t70.5 35.5t38.5 47.5t18 45t3.5 35q0 31 -10.5 55t-38 47.5t-79.5 43t-130 35.5q-86 16 -147.5 37t-115.5 56t-81.5 90t-27.5 130q0 136 93.5 206t272.5 70q221 0 400 -45l-27 -116q-178 45 -365 45q-61 0 -106.5 -13.5 t-68.5 -31t-36.5 -41.5t-16.5 -39.5t-3 -30.5q0 -32 9 -55.5t34 -48t76 -44.5t127 -36q94 -20 156.5 -40.5t118.5 -55t83 -86t27 -123.5q0 -147 -94.5 -225t-272.5 -78q-249 0 -428 45zM481 1147l129 246h121l-168 -246h-82z" />
<glyph unicode="&#x15c;" horiz-adv-x="1228" d="M125 49l27 127q250 -61 462 -61q85 0 150.5 22t103.5 58.5t57 80t19 91.5q0 43 -13 78.5t-45.5 63.5t-55 45.5t-76.5 36.5t-72 24.5t-77 21.5l-21 6q-88 22 -162 55t-138.5 82t-101.5 119.5t-37 155.5q0 94 36 164.5t101 112t148 61.5t184 20q224 0 461 -70l-35 -126 q-148 36 -240.5 48.5t-185.5 12.5q-164 0 -236.5 -63.5t-72.5 -163.5q0 -51 26.5 -95t63.5 -71.5t93.5 -52t98.5 -37t97 -25.5q420 -94 420 -391q0 -193 -135.5 -296t-354.5 -103q-255 0 -489 69zM371 1495l219 246h90l219 -246h-82l-182 178l-182 -178h-82z" />
<glyph unicode="&#x15d;" horiz-adv-x="983" d="M94 25l27 116q178 -45 385 -45q62 0 108.5 15t70.5 35.5t38.5 47.5t18 45t3.5 35q0 31 -10.5 55t-38 47.5t-79.5 43t-130 35.5q-86 16 -147.5 37t-115.5 56t-81.5 90t-27.5 130q0 136 93.5 206t272.5 70q221 0 400 -45l-27 -116q-178 45 -365 45q-61 0 -106.5 -13.5 t-68.5 -31t-36.5 -41.5t-16.5 -39.5t-3 -30.5q0 -32 9 -55.5t34 -48t76 -44.5t127 -36q94 -20 156.5 -40.5t118.5 -55t83 -86t27 -123.5q0 -147 -94.5 -225t-272.5 -78q-249 0 -428 45zM252 1147l219 246h90l219 -246h-82l-182 178l-182 -178h-82z" />
<glyph unicode="&#x15e;" horiz-adv-x="1228" d="M125 49l27 127q250 -61 462 -61q85 0 150.5 22t103.5 58.5t57 80t19 91.5q0 43 -13 78.5t-45.5 63.5t-55 45.5t-76.5 36.5t-72 24.5t-77 21.5l-21 6q-88 22 -162 55t-138.5 82t-101.5 119.5t-37 155.5q0 94 36 164.5t101 112t148 61.5t184 20q224 0 461 -70l-35 -126 q-148 36 -240.5 48.5t-185.5 12.5q-164 0 -236.5 -63.5t-72.5 -163.5q0 -51 26.5 -95t63.5 -71.5t93.5 -52t98.5 -37t97 -25.5q420 -94 420 -391q0 -190 -129 -292t-342 -107v-95q70 -5 120 -40t50 -107t-52.5 -115t-142.5 -43q-62 0 -145 25l10 51q66 -16 113 -16 q67 0 96 33t29 73q0 39 -31.5 70t-106.5 32v132q-241 7 -448 69z" />
<glyph unicode="&#x15f;" horiz-adv-x="983" d="M94 25l27 116q178 -45 385 -45q62 0 108.5 15t70.5 35.5t38.5 47.5t18 45t3.5 35q0 31 -10.5 55t-38 47.5t-79.5 43t-130 35.5q-86 16 -147.5 37t-115.5 56t-81.5 90t-27.5 130q0 136 93.5 206t272.5 70q221 0 400 -45l-27 -116q-178 45 -365 45q-61 0 -106.5 -13.5 t-68.5 -31t-36.5 -41.5t-16.5 -39.5t-3 -30.5q0 -32 9 -55.5t34 -48t76 -44.5t127 -36q94 -20 156.5 -40.5t118.5 -55t83 -86t27 -123.5q0 -145 -93 -223.5t-268 -79.5v-95q72 -5 122 -40t50 -107t-52 -115t-142 -43q-65 0 -148 25l13 51q66 -16 112 -16q67 0 96 33t29 73 q0 39 -31 70t-106 32v132q-218 6 -377 45z" />
<glyph unicode="&#x160;" horiz-adv-x="1228" d="M125 49l27 127q250 -61 462 -61q85 0 150.5 22t103.5 58.5t57 80t19 91.5q0 43 -13 78.5t-45.5 63.5t-55 45.5t-76.5 36.5t-72 24.5t-77 21.5l-21 6q-88 22 -162 55t-138.5 82t-101.5 119.5t-37 155.5q0 94 36 164.5t101 112t148 61.5t184 20q224 0 461 -70l-35 -126 q-148 36 -240.5 48.5t-185.5 12.5q-164 0 -236.5 -63.5t-72.5 -163.5q0 -51 26.5 -95t63.5 -71.5t93.5 -52t98.5 -37t97 -25.5q420 -94 420 -391q0 -193 -135.5 -296t-354.5 -103q-255 0 -489 69zM350 1722h82l182 -180l183 180h82l-220 -245h-90z" />
<glyph unicode="&#x161;" horiz-adv-x="983" d="M94 25l27 116q178 -45 385 -45q62 0 108.5 15t70.5 35.5t38.5 47.5t18 45t3.5 35q0 31 -10.5 55t-38 47.5t-79.5 43t-130 35.5q-86 16 -147.5 37t-115.5 56t-81.5 90t-27.5 130q0 136 93.5 206t272.5 70q221 0 400 -45l-27 -116q-178 45 -365 45q-61 0 -106.5 -13.5 t-68.5 -31t-36.5 -41.5t-16.5 -39.5t-3 -30.5q0 -32 9 -55.5t34 -48t76 -44.5t127 -36q94 -20 156.5 -40.5t118.5 -55t83 -86t27 -123.5q0 -147 -94.5 -225t-272.5 -78q-249 0 -428 45zM246 1393h82l182 -181l182 181h82l-219 -246h-90z" />
<glyph unicode="&#x162;" horiz-adv-x="1146" d="M104 1257v136h938v-136h-393v-1257h-151v1257h-394zM510 -82h129v-154l-72 -176h-49l31 176h-39v154z" />
<glyph unicode="&#x163;" horiz-adv-x="768" d="M45 920v94l162 10l18 287h125v-287h303v-104h-303v-596q0 -118 41 -173t146 -55q53 0 112 10l15 -112q-93 -14 -172 -14q-152 0 -218.5 72t-66.5 249v619h-162zM346 -82h129v-154l-72 -176h-49l31 176h-39v154z" />
<glyph unicode="&#x164;" horiz-adv-x="1146" d="M104 1257v136h938v-136h-393v-1257h-151v1257h-394zM309 1722h82l182 -180l183 180h82l-220 -245h-90z" />
<glyph unicode="&#x165;" horiz-adv-x="768" d="M45 920v94l162 10l18 287h125v-287h303v-104h-303v-596q0 -118 41 -173t146 -55q53 0 112 10l15 -112q-93 -14 -172 -14q-152 0 -218.5 72t-66.5 249v619h-162zM498 1280v154h129v-154l-72 -176h-49l31 176h-39z" />
<glyph unicode="&#x166;" horiz-adv-x="1146" d="M104 1257v136h938v-136h-393v-659h182v-90h-182v-508h-151v508h-183v90h183v659h-394z" />
<glyph unicode="&#x167;" horiz-adv-x="768" d="M45 920v94l162 10l18 287h125v-287h303v-104h-303v-316h283v-90h-283v-190q0 -118 41 -173t146 -55q53 0 112 10l15 -112q-93 -14 -172 -14q-152 0 -218.5 72t-66.5 249v213h-123v90h123v316h-162z" />
<glyph unicode="&#x168;" horiz-adv-x="1310" d="M145 492v901h152v-901q0 -40 2 -71t10.5 -73t23 -74t42 -65t65 -54.5t94.5 -35t128 -13.5q67 0 121.5 13.5t90.5 35t62.5 54.5t41 65t23 73.5t11 73.5t2.5 71v901h151v-901q0 -263 -128 -387.5t-382 -124.5t-382 124.5t-128 387.5zM326 1561q63 90 112 125.5t105 35.5 q42 0 94 -29t99 -58t75 -29q73 0 133 98l41 -43q-70 -145 -174 -145q-39 0 -132 56t-132 56q-41 0 -73 -17.5t-99 -86.5z" />
<glyph unicode="&#x169;" d="M125 315v709h143v-678q0 -246 226 -246q146 0 323 138v786h144v-1024h-144v147h-4q-177 -167 -381 -167q-153 0 -230 85t-77 250zM213 1212q63 90 112.5 126t104.5 36q33 0 73.5 -18.5t71.5 -40t65.5 -40t57.5 -18.5q72 0 133 99l41 -43q-70 -146 -174 -146 q-39 0 -132 56.5t-132 56.5q-41 0 -73 -17.5t-99 -86.5z" />
<glyph unicode="&#x16a;" horiz-adv-x="1310" d="M145 492v901h152v-901q0 -40 2 -71t10.5 -73t23 -74t42 -65t65 -54.5t94.5 -35t128 -13.5q67 0 121.5 13.5t90.5 35t62.5 54.5t41 65t23 73.5t11 73.5t2.5 71v901h151v-901q0 -263 -128 -387.5t-382 -124.5t-382 124.5t-128 387.5zM344 1579v90h621v-90h-621z" />
<glyph unicode="&#x16b;" d="M125 315v709h143v-678q0 -246 226 -246q146 0 323 138v786h144v-1024h-144v147h-4q-177 -167 -381 -167q-153 0 -230 85t-77 250zM231 1231v90h621v-90h-621z" />
<glyph unicode="&#x16c;" horiz-adv-x="1310" d="M145 492v901h152v-901q0 -40 2 -71t10.5 -73t23 -74t42 -65t65 -54.5t94.5 -35t128 -13.5q67 0 121.5 13.5t90.5 35t62.5 54.5t41 65t23 73.5t11 73.5t2.5 71v901h151v-901q0 -263 -128 -387.5t-382 -124.5t-382 124.5t-128 387.5zM377 1776h65q8 -34 23 -64t39.5 -58 t63.5 -44.5t87 -16.5q164 0 215 183h64q-20 -134 -94 -201.5t-185 -67.5t-184 67.5t-94 201.5z" />
<glyph unicode="&#x16d;" d="M125 315v709h143v-678q0 -246 226 -246q146 0 323 138v786h144v-1024h-144v147h-4q-177 -167 -381 -167q-153 0 -230 85t-77 250zM264 1427h66q8 -34 23 -63.5t39.5 -57.5t63.5 -44.5t87 -16.5q164 0 215 182h63q-20 -134 -93.5 -201t-184.5 -67t-184.5 67t-94.5 201z " />
<glyph unicode="&#x16e;" horiz-adv-x="1310" d="M145 492v901h152v-901q0 -40 2 -71t10.5 -73t23 -74t42 -65t65 -54.5t94.5 -35t128 -13.5q67 0 121.5 13.5t90.5 35t62.5 54.5t41 65t23 73.5t11 73.5t2.5 71v901h151v-901q0 -263 -128 -387.5t-382 -124.5t-382 124.5t-128 387.5zM502 1618q0 66 44.5 108.5t110.5 42.5 q65 0 109.5 -43t44.5 -108t-44.5 -108.5t-109.5 -43.5q-66 0 -110.5 43t-44.5 109zM555 1618q0 -45 29 -75t73 -30q43 0 72 30.5t29 74.5t-29 74t-72 30q-44 0 -73 -30t-29 -74z" />
<glyph unicode="&#x16f;" d="M125 315v709h143v-678q0 -246 226 -246q146 0 323 138v786h144v-1024h-144v147h-4q-177 -167 -381 -167q-153 0 -230 85t-77 250zM389 1270q0 66 44.5 108.5t111.5 42.5q65 0 109 -43t44 -108q0 -66 -44 -109t-109 -43q-66 0 -111 43t-45 109zM442 1270q0 -44 29.5 -74.5 t73.5 -30.5q43 0 71.5 30.5t28.5 74.5t-28.5 74t-71.5 30q-44 0 -73.5 -30t-29.5 -74z" />
<glyph unicode="&#x170;" horiz-adv-x="1310" d="M145 492v901h152v-901q0 -40 2 -71t10.5 -73t23 -74t42 -65t65 -54.5t94.5 -35t128 -13.5q67 0 121.5 13.5t90.5 35t62.5 54.5t41 65t23 73.5t11 73.5t2.5 71v901h151v-901q0 -263 -128 -387.5t-382 -124.5t-382 124.5t-128 387.5zM467 1495l129 246h96l-143 -246h-82z M696 1495l127 246h99l-144 -246h-82z" />
<glyph unicode="&#x171;" d="M125 315v709h143v-678q0 -246 226 -246q146 0 323 138v786h144v-1024h-144v147h-4q-177 -167 -381 -167q-153 0 -230 85t-77 250zM375 1147l129 246h96l-143 -246h-82zM604 1147l127 246h98l-143 -246h-82z" />
<glyph unicode="&#x172;" horiz-adv-x="1310" d="M145 492v901h152v-901q0 -40 2 -71t10.5 -73t23 -74t42 -65t65 -54.5t94.5 -35t128 -13.5q67 0 121.5 13.5t90.5 35t62.5 54.5t41 65t23 73.5t11 73.5t2.5 71v901h151v-901q0 -256 -119.5 -380t-361.5 -132q-55 -47 -91 -106.5t-36 -109.5q0 -53 30.5 -82.5t86.5 -29.5 q28 0 55.5 8.5t36.5 13.5t33 19l10 -41q-76 -60 -180 -60q-70 0 -120 37t-50 105q0 129 149 248q-233 11 -348 135t-115 375z" />
<glyph unicode="&#x173;" d="M125 315v709h143v-678q0 -246 226 -246q146 0 323 138v786h144v-1024q-84 -32 -137.5 -101.5t-53.5 -134.5q0 -53 30.5 -82.5t86.5 -29.5q28 0 55.5 8.5t36.5 13.5t33 19l10 -41q-76 -60 -180 -60q-68 0 -119 36t-51 108q0 68 47.5 137.5t128.5 126.5h-31v147h-4 q-177 -167 -381 -167q-153 0 -230 85t-77 250z" />
<glyph unicode="&#x174;" horiz-adv-x="1925" d="M84 1393h168l311 -1205h2l312 1205h180l313 -1205h2l309 1205h160l-375 -1403h-196l-305 1161h-4l-306 -1161h-196zM698 1495l220 246h90l219 -246h-82l-182 178l-183 -178h-82z" />
<glyph unicode="&#x175;" horiz-adv-x="1617" d="M96 1024h160l252 -870h4l231 870h140l241 -870h4l242 870h150l-312 -1034h-159l-238 813h-4l-232 -813h-159zM545 1147l219 246h90l219 -246h-82l-182 178l-182 -178h-82z" />
<glyph unicode="&#x176;" horiz-adv-x="1269" d="M84 1393h174l379 -744h4l379 744h166l-475 -901v-492h-152v492zM371 1495l219 246h90l219 -246h-82l-182 178l-182 -178h-82z" />
<glyph unicode="&#x177;" horiz-adv-x="1146" d="M96 1024h162l330 -883h4l303 883h154l-396 -1098q-67 -190 -159.5 -273t-233.5 -83q-69 0 -137 14l14 121q44 -10 92 -10q55 0 101 25t79.5 71.5t54 87.5t42.5 98zM309 1147l219 246h90l220 -246h-82l-183 178l-182 -178h-82z" />
<glyph unicode="&#x178;" horiz-adv-x="1269" d="M84 1393h174l379 -744h4l379 744h166l-475 -901v-492h-152v492zM313 1509v220h121v-220h-121zM836 1509v220h120v-220h-120z" />
<glyph unicode="&#x179;" horiz-adv-x="1146" d="M92 0v113l737 1140v4h-696v136h901v-113l-731 -1141v-4h752v-135h-963zM535 1477l129 245h120l-168 -245h-81z" />
<glyph unicode="&#x17a;" horiz-adv-x="962" d="M66 0v104l628 803v4h-598v113h783v-104l-625 -803v-4h643v-113h-831zM434 1147l129 246h121l-168 -246h-82z" />
<glyph unicode="&#x17b;" horiz-adv-x="1146" d="M92 0v113l737 1140v4h-696v136h901v-113l-731 -1141v-4h752v-135h-963zM508 1520v221h129v-221h-129z" />
<glyph unicode="&#x17c;" horiz-adv-x="962" d="M66 0v104l628 803v4h-598v113h783v-104l-625 -803v-4h643v-113h-831zM416 1171v222h129v-222h-129z" />
<glyph unicode="&#x17d;" horiz-adv-x="1146" d="M92 0v113l737 1140v4h-696v136h901v-113l-731 -1141v-4h752v-135h-963zM309 1722h82l182 -180l183 180h82l-220 -245h-90z" />
<glyph unicode="&#x17e;" horiz-adv-x="962" d="M66 0v104l628 803v4h-598v113h783v-104l-625 -803v-4h643v-113h-831zM217 1393h82l182 -181l183 181h81l-219 -246h-90z" />
<glyph unicode="&#x17f;" horiz-adv-x="706" d="M-90 -416l14 113q59 -10 111 -10q101 0 136.5 37.5t35.5 130.5v1257q0 177 66.5 249.5t218.5 72.5q59 0 155 -15l-14 -112q-59 10 -111 10q-100 0 -136 -53.5t-36 -173.5v-1250q0 -144 -62.5 -207t-221.5 -63q-63 0 -156 14z" />
<glyph unicode="&#x2c6;" horiz-adv-x="782" d="M127 1147l219 246h90l219 -246h-82l-182 178l-182 -178h-82z" />
<glyph unicode="&#x2da;" horiz-adv-x="563" d="M127 1270q0 66 44.5 108.5t111.5 42.5q65 0 109 -43t44 -108q0 -66 -44 -109t-109 -43q-66 0 -111 43t-45 109zM180 1270q0 -44 29.5 -74.5t73.5 -30.5q43 0 71.5 30.5t28.5 74.5t-28.5 74t-71.5 30q-44 0 -73.5 -30t-29.5 -74z" />
<glyph unicode="&#x2dc;" horiz-adv-x="915" d="M127 1212q63 90 112.5 126t104.5 36q33 0 73.5 -18.5t71.5 -40t65.5 -40t57.5 -18.5q72 0 133 99l41 -43q-70 -146 -174 -146q-39 0 -132 56.5t-132 56.5q-41 0 -73 -17.5t-99 -86.5z" />
<glyph unicode="&#x1e80;" horiz-adv-x="1925" d="M84 1393h168l311 -1205h2l312 1205h180l313 -1205h2l309 1205h160l-375 -1403h-196l-305 1161h-4l-306 -1161h-196zM764 1700h121l129 -246h-82z" />
<glyph unicode="&#x1e81;" horiz-adv-x="1617" d="M96 1024h160l252 -870h4l231 870h140l241 -870h4l242 870h150l-312 -1034h-159l-238 813h-4l-232 -813h-159zM598 1393h121l129 -246h-82z" />
<glyph unicode="&#x1e82;" horiz-adv-x="1925" d="M84 1393h168l311 -1205h2l312 1205h180l313 -1205h2l309 1205h160l-375 -1403h-196l-305 1161h-4l-306 -1161h-196zM928 1477l129 245h121l-168 -245h-82z" />
<glyph unicode="&#x1e83;" horiz-adv-x="1617" d="M96 1024h160l252 -870h4l231 870h140l241 -870h4l242 870h150l-312 -1034h-159l-238 813h-4l-232 -813h-159zM774 1143l129 246h121l-168 -246h-82z" />
<glyph unicode="&#x1e84;" horiz-adv-x="1925" d="M84 1393h168l311 -1205h2l312 1205h180l313 -1205h2l309 1205h160l-375 -1403h-196l-305 1161h-4l-306 -1161h-196zM641 1509v220h121v-220h-121zM1163 1509v220h121v-220h-121z" />
<glyph unicode="&#x1e85;" horiz-adv-x="1617" d="M96 1024h160l252 -870h4l231 870h140l241 -870h4l242 870h150l-312 -1034h-159l-238 813h-4l-232 -813h-159zM487 1171v222h121v-222h-121zM1010 1171v222h120v-222h-120z" />
<glyph unicode="&#x1ef2;" horiz-adv-x="1269" d="M84 1393h174l379 -744h4l379 744h166l-475 -901v-492h-152v492zM430 1700h121l129 -246h-82z" />
<glyph unicode="&#x1ef3;" horiz-adv-x="1146" d="M96 1024h162l330 -883h4l303 883h154l-396 -1098q-67 -190 -159.5 -273t-233.5 -83q-69 0 -137 14l14 121q44 -10 92 -10q55 0 101 25t79.5 71.5t54 87.5t42.5 98zM362 1393h121l129 -246h-82z" />
<glyph unicode="&#x2000;" horiz-adv-x="891" />
<glyph unicode="&#x2001;" horiz-adv-x="1782" />
<glyph unicode="&#x2002;" horiz-adv-x="891" />
<glyph unicode="&#x2003;" horiz-adv-x="1782" />
<glyph unicode="&#x2004;" horiz-adv-x="594" />
<glyph unicode="&#x2005;" horiz-adv-x="445" />
<glyph unicode="&#x2006;" horiz-adv-x="297" />
<glyph unicode="&#x2007;" horiz-adv-x="297" />
<glyph unicode="&#x2008;" horiz-adv-x="222" />
<glyph unicode="&#x2009;" horiz-adv-x="356" />
<glyph unicode="&#x200a;" horiz-adv-x="99" />
<glyph unicode="&#x2010;" horiz-adv-x="1024" d="M125 483v119h774v-119h-774z" />
<glyph unicode="&#x2011;" horiz-adv-x="1024" d="M125 483v119h774v-119h-774z" />
<glyph unicode="&#x2012;" horiz-adv-x="1024" d="M125 483v119h774v-119h-774z" />
<glyph unicode="&#x2013;" horiz-adv-x="1421" d="M125 483v119h1169v-119h-1169z" />
<glyph unicode="&#x2014;" horiz-adv-x="1556" d="M125 483v119h1307v-119h-1307z" />
<glyph unicode="&#x2018;" horiz-adv-x="393" d="M125 874v252l74 267h51l-35 -267h53v-252h-143z" />
<glyph unicode="&#x2019;" horiz-adv-x="393" d="M125 1141v252h143v-252l-73 -267h-52l35 267h-53z" />
<glyph unicode="&#x201a;" horiz-adv-x="393" d="M125 -47v252h143v-252l-73 -266h-52l35 266h-53z" />
<glyph unicode="&#x201c;" horiz-adv-x="843" d="M125 874v252l74 267h51l-35 -267h53v-252h-143zM575 874v252q21 81 74 267h51l-34 -267h53v-252h-144z" />
<glyph unicode="&#x201d;" horiz-adv-x="843" d="M125 1141v252h143v-252l-73 -267h-52l35 267h-53zM575 1141v252h144v-252l-74 -267h-51l35 267h-54z" />
<glyph unicode="&#x201e;" horiz-adv-x="843" d="M125 -47v252h143v-252l-73 -266h-52l35 266h-53zM575 -47v252h144v-252l-74 -266h-51l35 266h-54z" />
<glyph unicode="&#x2026;" horiz-adv-x="1212" d="M125 0v250h143v-250h-143zM535 0v250h143v-250h-143zM944 0v250h143v-250h-143z" />
<glyph unicode="&#x202f;" horiz-adv-x="356" />
<glyph unicode="&#x2039;" horiz-adv-x="778" d="M125 467v90l528 342v-131l-377 -256l377 -256v-131z" />
<glyph unicode="&#x203a;" horiz-adv-x="778" d="M125 125v131l377 256l-377 256v131l528 -342v-90z" />
<glyph unicode="&#x205f;" horiz-adv-x="445" />
<glyph unicode="&#x20ac;" horiz-adv-x="1433" d="M113 508v90h147q-4 70 -4 109q0 15 1 44t1 44h-145v90h157q18 115 60 209t110 166.5t169.5 112.5t228.5 40q75 0 144.5 -13.5t115.5 -29.5t96.5 -45t71 -44t55.5 -42l-53 -117q-194 156 -408 156q-97 0 -172.5 -30.5t-124.5 -86t-79.5 -123.5t-45.5 -153h422l-14 -90 h-428q-4 -29 -4 -88q0 -57 6 -109h440l-14 -90h-406q17 -84 48 -152t80.5 -123.5t123.5 -86.5t168 -31q215 0 408 155l53 -116q-35 -27 -55.5 -42t-71 -44t-96.5 -45t-115.5 -29.5t-144.5 -13.5q-125 0 -225 40t-168 112.5t-110.5 166.5t-62.5 209h-159z" />
<glyph unicode="&#x2122;" horiz-adv-x="1611" d="M86 1311v82h530v-82h-219v-623h-90v623h-221zM805 688v705h121l237 -557h4l236 557h123v-705h-90v543h-4l-236 -543h-72l-231 543h-2v-543h-86z" />
<glyph unicode="&#x25fc;" horiz-adv-x="1024" d="M0 0v1024h1024v-1024h-1024z" />
</font>
</defs>
</svg>
